Отель «Гранд Будапешт» / The Grand Budapest Hotel (2014) BDRip 720p | Лицензия - скачать торрент

Фильмы высокого разрешения в формате HD
 Статистика раздачи 
Размер: 4.91 ГБ   |  Зарегистрирован: 15 июн 2014, 17:31   |   .torrent скачан: 20 раз
Сидеров: 1301  [ 0 байт/сек ]     Личеров: 67  [ 0 байт/сек ]  
  

Сообщение Бубочка » 15 июн 2014, 17:31


Информация о фильме
Название: Отель «Гранд Будапешт»
Оригинальное название: The Grand Budapest Hotel
Год выхода: 2014
Жанр: комедия, детектив, приключения, криминал
Режиссер: Уэс Андерсон
В ролях: Рэйф Файнс, Тони Револори, Сирша Ронан, Эдриан Броуди, Уиллем Дефо, Ф. Мюррэй Абрахам, Джуд Лоу, Эдвард Нортон, Джефф Голдблюм, Харви Кейтель

Описание
Фильм рассказывает об увлекательных приключениях легендарного консьержа Густава и его юного друга, портье Зеро Мустафы. Сотрудники гостиницы становятся свидетелями кражи и поисков бесценных картин эпохи Возрождения, борьбы за огромное состояние богатой семьи и… драматических изменений в Европе между двумя кровопролитными войнами XX века.



Выпущено: Великобритания, Германия
Продолжительность: 01:39:57
Озвучивание: Дублированное [Лицензия]
Субтитры: Английские

Файл:
Качество: BDRip (720p)
Видео: MPEG-4 AVC, 6079 Кбит/с 1280x534
Аудио: Русский (DTS, 6 ch, 768 Кбит/с), английский (DTS, 6 ch, 1509 Кбит/с)
Общее
Уникальный идентификатор : 247057726949208767035938390787490155249 (0xB9DD9661F7CD293F928ECAAF48E58AF1)
Полное имя : K:\The.grand.budapest.hotel.2014.D.BDRip.720p.mkv
Формат : Matroska
Версия формата : Version 2
Размер файла : 4,91 Гбайт
Продолжительность : 1 ч. 39 м.
Общий поток : 7035 Кбит/сек
Дата кодирования : UTC 2014-06-05 13:48:25
Программа кодирования : mkvmerge v6.9.1 ('Blue Panther') 64bit built on Apr 18 2014 18:23:38
Библиотека кодирования : libebml v1.3.0 + libmatroska v1.4.1

Видео
Идентификатор : 1
Формат : AVC
Формат/Информация : Advanced Video Codec
Профиль формата : High@L4.1
Параметр CABAC формата : Да
Параметр ReFrames формата : 5 кадров
Идентификатор кодека : V_MPEG4/ISO/AVC
Продолжительность : 1 ч. 39 м.
Битрейт : 4758 Кбит/сек
Ширина : 1280 пикселей
Высота : 688 пикселей
Соотношение сторон : 1,85:1
Режим частоты кадров : Постоянный
Частота кадров : 23,976 кадра/сек
Цветовое пространство : YUV
Субдискретизация насыщенности : 4:2:0
Битовая глубина : 8 бит
Тип развёртки : Прогрессивная
Бит/(Пиксели*Кадры) : 0.225
Размер потока : 3,22 Гбайт (66%)
Библиотека кодирования : x264 core 142 r2431 ac76440
Настройки программы : cabac=1 / ref=5 / deblock=1:0:0 / analyse=0x3:0x133 / me=umh / subme=7 / psy=1 / psy_rd=1.00:0.00 / mixed_ref=1 / me_range=16 / chroma_me=1 / trellis=1 / 8x8dct=1 / cqm=0 / deadzone=21,11 / fast_pskip=1 / chroma_qp_offset=-2 / threads=8 / lookahead_threads=1 / sliced_threads=0 / nr=0 / decimate=1 / interlaced=0 / bluray_compat=0 / constrained_intra=0 / bframes=3 / b_pyramid=2 / b_adapt=2 / b_bias=0 / direct=3 / weightb=1 / open_gop=0 / weightp=2 / keyint=250 / keyint_min=23 / scenecut=40 / intra_refresh=0 / rc_lookahead=50 / rc=2pass / mbtree=1 / bitrate=4758 / ratetol=1.0 / qcomp=0.60 / qpmin=0 / qpmax=69 / qpstep=4 / cplxblur=20.0 / qblur=0.5 / ip_ratio=1.40 / aq=1:1.00
Язык : English
Default : Да
Forced : Нет

Аудио #1
Идентификатор : 2
Формат : DTS
Формат/Информация : Digital Theater Systems
Режим : 16
Параметр Endianness формата : Big
Идентификатор кодека : A_DTS
Продолжительность : 1 ч. 39 м.
Вид битрейта : Постоянный
Битрейт : 768 Кбит/сек
Каналы : 6 каналов
Расположение каналов : Front: L C R, Side: L R, LFE
Частота : 48,0 КГц
Битовая глубина : 24 бит
Метод сжатия : С потерями
Размер потока : 549 Мбайт (11%)
Язык : Russian
Default : Да
Forced : Нет

Аудио #2
Идентификатор : 3
Формат : DTS
Формат/Информация : Digital Theater Systems
Режим : 16
Параметр Endianness формата : Big
Идентификатор кодека : A_DTS
Продолжительность : 1 ч. 39 м.
Вид битрейта : Постоянный
Битрейт : 1509 Кбит/сек
Каналы : 6 каналов
Расположение каналов : Front: L C R, Side: L R, LFE
Частота : 48,0 КГц
Битовая глубина : 24 бит
Метод сжатия : С потерями
Размер потока : 1,05 Гбайт (21%)
Язык : English
Default : Нет
Forced : Нет

Текст #1
Идентификатор : 4
Формат : UTF-8
Идентификатор кодека : S_TEXT/UTF8
Идентификатор кодека/Информация : UTF-8 Plain Text
Заголовок : English FORCED
Язык : English
Default : Да
Forced : Да

Текст #2
Идентификатор : 5
Формат : UTF-8
Идентификатор кодека : S_TEXT/UTF8
Идентификатор кодека/Информация : UTF-8 Plain Text
Заголовок : English
Язык : English
Default : Нет
Forced : Нет

Текст #3
Идентификатор : 6
Формат : UTF-8
Идентификатор кодека : S_TEXT/UTF8
Идентификатор кодека/Информация : UTF-8 Plain Text
Заголовок : English SDH
Язык : English
Default : Нет
Forced : Нет

Меню
00:00:00.000 : en:00:00:00.000
00:02:55.884 : en:00:02:55.884
00:06:00.151 : en:00:06:00.151
00:08:28.133 : en:00:08:28.133
00:11:32.609 : en:00:11:32.609
00:14:17.190 : en:00:14:17.190
00:17:39.600 : en:00:17:39.600
00:19:56.237 : en:00:19:56.237
00:23:08.804 : en:00:23:08.804
00:25:35.409 : en:00:25:35.409
00:29:30.310 : en:00:29:30.310
00:32:11.763 : en:00:32:11.763
00:34:16.262 : en:00:34:16.262
00:35:51.649 : en:00:35:51.649
00:38:58.044 : en:00:38:58.044
00:40:18.833 : en:00:40:18.833
00:41:43.793 : en:00:41:43.793
00:45:22.761 : en:00:45:22.761
00:48:22.649 : en:00:48:22.649
00:51:53.026 : en:00:51:53.026
00:55:18.273 : en:00:55:18.273
00:59:08.545 : en:00:59:08.545
01:04:17.020 : en:01:04:17.020
01:08:34.986 : en:01:08:34.986
01:12:20.461 : en:01:12:20.461
01:16:18.907 : en:01:16:18.907
01:17:41.490 : en:01:17:41.490
01:20:47.801 : en:01:20:47.801
01:24:02.370 : en:01:24:02.370
01:27:08.556 : en:01:27:08.556
01:30:55.908 : en:01:30:55.908
01:32:57.363 : en:01:32:57.363
   
Торрент: Зарегистрирован [15 июн 2014, 17:31] Фильмы HD Скачать торрент
Скачать торрент
[ Размер 25.06 КБ / Просмотров 40 ]
Статус:
Проверен
 
.torrent скачан: 20 раз
Размер: 4.91 ГБ (5 272 237 974 байт)
   
Аватара пользователя
Бубочка
Администратор
Администратор
 
Раздал: 7.29 ТБ
Скачал: 419.06 ГБ
Ратио: 150.817
Сообщения: 4932
Зарегистрирован: 13 дек 2013, 01:15


  • Похожие торренты
    Ответы
    Просмотры
    Последнее сообщение

Вернуться в Фильмы HD

Кто сейчас на конференции

Сейчас этот форум просматривают: нет зарегистрированных пользователей и гости: 3

cron
Ресурс не предоставляет электронные версии произведений, а занимается лишь коллекционированием и каталогизацией ссылок, присылаемых и публикуемых на форуме нашими читателями. Если вы являетесь правообладателем какого-либо представленного материала и не желаете чтобы ссылка на него находилась в нашем каталоге, свяжитесь с нами и мы незамедлительно удалим её. Файлы для обмена на трекере предоставлены пользователями сайта, и администрация не несёт ответственности за их содержание. Просьба не заливать файлы, защищенные авторскими правами, а также файлы нелегального содержания!
cron
ppkBB3cker v.2 © 2008-2014 @ PPK