Первый мститель: Другая война / Captain America: The Winter Soldier (2014) BDRip 720p | Лицензия - скачать торрент

Фильмы высокого разрешения в формате HD
 Статистика раздачи 
Размер: 4.88 ГБ   |  Зарегистрирован: 01 авг 2014, 17:21   |   .torrent скачан: 2373 раз
Сидеров: 2654  [ 0 байт/сек ]     Личеров: 3089  [ 0 байт/сек ]  
  

Сообщение Бубочка » 01 авг 2014, 17:21


Информация о фильме
Название: Первый мститель: Другая война
Оригинальное название: Captain America: The Winter Soldier
Год выхода: 2014
Режиссер: Энтони Руссо, Джо Руссо
В ролях: Крис Эванс, Скарлетт Йоханссон, Роберт Редфорд, Сэмюэл Л. Джексон, Себастьян Стэн, Энтони Маки, Коби Смолдерс, Фрэнк Грилло, Максимилиано Эрнандес, Эмили ВанКэмп

О фильме: После беспрецедентных событий, впервые собравших вместе команду Мстителей, Стив Роджерс, известный также как Капитан Америка, оседает в Вашингтоне и пытается приспособиться к жизни в современном мире. Но покой этому герою только снится — пытаясь помочь коллеге из агентства Щ. И. Т, Стив оказывается в центре событий, грозящих катастрофой мирового масштаба. Для того, чтобы разоблачить злодейский заговор, Капитан Америка объединяется с Черной вдовой. К ним также присоединяется новый соратник, известный как Сокол, однако никто из них даже не подозревает, на что способен новый враг.



Страна: США
Продолжительность: 02:15:54
Перевод: Дубляж [Лицензия]

Файл
Кодек: x264
Качество: BDRip 720p
Видео: 1280x536 (2.35:1), 23.976 fps, 4 242 Kbps (0.258 bit/pixel)
Аудио 1: Русский, 5.1, 448 kbps, 48 kHz
Аудио 2: Английский, 5.1, 448 kbps, 48 kHz

Скачать: семпл
Название Captain.America.The.Winter.Soldier.2014.BDRip720p.mkv
Формат : Matroska
Формат version : Version 2
Размер файла : 4.88 GiB
Длительность : 2h 15mn
Общий Битрейт : 5 140 Kbps
Encoded date : UTC 2014-08-01 05:19:31
Создано приложением : mkvmerge v5.8.0 ('No Sleep / Pillow') built on Sep 2 2012 15:37:04
Writing library : libebml v1.2.3 + libmatroska v1.3.0

Video
ID : 1
Формат : AVC
Формат/Info : Advanced Video Кодек
Формат profile : High@L4.1
Формат настройки, CABAC : Yes
Формат настройки, ReFrames : 5 frames
Кодек ID : V_MPEG4/ISO/AVC
Длительность : 2h 15mn
Битрейт : 4 242 Kbps
Width : 1 280 пикселей
Высота : 536 пикселей
Соотношение кадра : 2.40:1
Частота кадров mode : Constant
Частота кадров : 23.976 fps
Цветопередача : YUV
Chroma subsampling : 4:2:0
Разрядность : 8 bits
Тип сканирования : Progressive
Bits/(Pixel*Frame) : 0.258
Размер потока : 3.93 GiB (81%)
Writing library : x264 core 142 r2431 ac76440
Encoding настройки : cabac=1 / ref=5 / deblock=1:0:0 / analyse=0x3:0x133 / me=umh / subme=7 / psy=1 / psy_rd=1.00:0.00 / mixed_ref=1 / me_range=16 / chroma_me=1 / trellis=1 / 8x8dct=1 / cqm=0 / deadzone=21,11 / fast_pskip=0 / chroma_qp_offset=-2 / threads=12 / lookahead_threads=2 / sliced_threads=0 / nr=0 / decimate=1 / interlaced=0 / bluray_compat=0 / constrained_intra=0 / bframes=3 / b_pyramid=2 / b_adapt=1 / b_bias=0 / direct=1 / weightb=1 / open_gop=0 / weightp=2 / keyint=250 / keyint_min=23 / scenecut=40 / intra_refresh=0 / rc_lookahead=40 / rc=2pass / mbtree=1 / bitrate=4242 / ratetol=1.0 / qcomp=0.60 / qpmin=0 / qpmax=69 / qpstep=4 / cplxblur=20.0 / qblur=0.5 / ip_ratio=1.40 / aq=1:1.00
Язык : English
Default : Yes
Forced : No

Audio #1
ID : 2
Формат : AC-3
Формат/Info : Audio Coding 3
Расширение режима : CM (complete main)
Формат настройки, Endianness : Big
Кодек ID : A_AC3
Длительность : 2h 15mn
Битрейт mode : Constant
Битрейт : 448 Kbps
Каналы(s) : 6 каналов
Каналы positions : Front: L C R, Side: L R, LFE
Частота : 48.0 KHz
Разрядность : 16 bits
Режим сжатия : Lossy
Размер потока : 435 MiB (9%)
Title : [Лицензия]
Язык : Russian
Default : Yes
Forced : No

Audio #2
ID : 3
Формат : AC-3
Формат/Info : Audio Coding 3
Расширение режима : CM (complete main)
Формат настройки, Endianness : Big
Кодек ID : A_AC3
Длительность : 2h 15mn
Битрейт mode : Constant
Битрейт : 448 Kbps
Каналы(s) : 6 каналов
Каналы positions : Front: L C R, Side: L R, LFE
Частота : 48.0 KHz
Разрядность : 16 bits
Режим сжатия : Lossy
Размер потока : 435 MiB (9%)
Title : [Оригинал]
Язык : English
Default : No
Forced : No

Menu
00:00:00.000 : en:00:00:00.000
00:03:28.667 : en:00:03:28.667
00:13:31.728 : en:00:13:31.728
00:17:57.868 : en:00:17:57.868
00:22:25.302 : en:00:22:25.302
00:33:20.415 : en:00:33:20.415
00:41:27.276 : en:00:41:27.276
00:51:37.303 : en:00:51:37.303
00:58:23.959 : en:00:58:23.959
01:07:40.348 : en:01:07:40.348
01:16:22.203 : en:01:16:22.203
01:24:43.078 : en:01:24:43.078
01:32:17.699 : en:01:32:17.699
01:37:06.612 : en:01:37:06.612
01:49:13.088 : en:01:49:13.088
01:55:03.730 : en:01:55:03.730
02:01:11.055 : en:02:01:11.055
02:06:22.241 : en:02:06:22.241
   
Торрент: Зарегистрирован [01 авг 2014, 17:21] Фильмы HD Скачать торрент
Скачать торрент
[ Размер 25.04 КБ / Просмотров 40 ]
Статус:
Проверен
 
.torrent скачан: 2373 раз
Размер: 4.88 ГБ (5 238 727 783 байт)
   
Аватара пользователя
Бубочка
Администратор
Администратор
 
Раздал: 7.29 ТБ
Скачал: 419.06 ГБ
Ратио: 150.817
Сообщения: 4928
Зарегистрирован: 13 дек 2013, 01:15


  • Похожие торренты
    Ответы
    Просмотры
    Последнее сообщение

Вернуться в Фильмы HD

Кто сейчас на конференции

Сейчас этот форум просматривают: нет зарегистрированных пользователей и гости: 2

cron
Ресурс не предоставляет электронные версии произведений, а занимается лишь коллекционированием и каталогизацией ссылок, присылаемых и публикуемых на форуме нашими читателями. Если вы являетесь правообладателем какого-либо представленного материала и не желаете чтобы ссылка на него находилась в нашем каталоге, свяжитесь с нами и мы незамедлительно удалим её. Файлы для обмена на трекере предоставлены пользователями сайта, и администрация не несёт ответственности за их содержание. Просьба не заливать файлы, защищенные авторскими правами, а также файлы нелегального содержания!
cron
ppkBB3cker v.2 © 2008-2014 @ PPK