Город грехов 2: Женщина, ради которой стоит убивать / Sin City: A Dame to Kill For (2014) BDRip 720p - скачать торрент

Фильмы высокого разрешения в формате HD
 Статистика раздачи 
Размер: 4.06 ГБ   |  Зарегистрирован: 07 ноя 2014, 20:40   |   .torrent скачан: 127 раз
Сидеров: 33  [ 0 байт/сек ]     Личеров: 0  [ 0 байт/сек ]  
  

Сообщение Бубочка » 07 ноя 2014, 20:40


Город грехов 2: Женщина, ради которой стоит убивать / Sin City: A Dame to Kill For

Год выпуска: 2014
Производство: США, Россия / Aldamisa Entertainment, Demarest Films, Miramax Films, Quick Draw Productions, Solipsist Film, Troublemaker Studios
Жанр: боевик, триллер, криминал

Режиссер: Фрэнк Миллер, Роберт Родригес
В ролях: Ева Грин, Микки Рурк, Джош Бролин, Джессика Альба, Джозеф Гордон-Левитт, Розарио Доусон, Пауэрс Бут, Деннис Хейсбёрт, Джейми Чунг, Брюс Уиллис

Описание:
В темных переулках Города Грехов Дуайт планирует жестоко отомстить женщине по имени Ава Лорд, которая его предала, в то время как Нэнси пытается смириться со смертью детектива Хартигана.



Продолжительность: 01:42:46
Перевод: Дублированный [BD RUS] (Лицензия)
Cубтитры: Отсутствуют

Качество: BDRip [720p]
Видео: MPEG-4 AVC/H.264, 1280x692 (1.85:1), 4 900 kbps, 24.000 fps
Аудио 1: Русский/Дублированный [BD RUS], AAC / 2.0 / 144 Kbps / 48.0 KHz
Аудио 2: Русский/Дублированный [BD RUS], AC3 / 5.1 / 640 Kbps / 48.0 KHz
General
Complete name : C: Sin.City.2.2014.BDRip.720p
Format : MPEG-4
Codec ID : M4V
File size : 4.06 GiB
Duration : 1h 42mn
Overall bit rate mode : Variable
Overall bit rate : 5 657 Kbps
Movie name : Город грехов 2: Женщина, ради которой стоит убивать
Performer : Frank Miller & Robert Rodriguez
Genre : Action & Adventure
ContentType : Short Film
Deion : В темных переулках Города Грехов Дуайт планирует жестоко отомстить женщине по имени Ава Лорд, которая его предала, в то время как Нэнси пытается смириться со смертью детектива Хартигана.
Recorded date : UTC 2014-08-22 07:00:00
Encoded date : UTC 2014-09-28 14:58:43
Tagged date : UTC 2014-09-28 15:04:23
Copyright : Residaco, Aldamisa Entertainment, Demarest Films
Service name : AOL
Cover : Yes
Comment : «There is no justice without sin»
ContentRating : mpaa|PG-13|300|

Title/Sort : Sin City 2: A Dame to Kill For
LongDeion : В темных переулках Города Грехов Дуайт планирует жестоко отомстить женщине по имени Ава Лорд, которая его предала, в то время как Нэнси пытается смириться со смертью детектива Хартигана.
HDVideo : Yes
AppleStoreAccountType : AOL
AppleStoreCountry : Unknown Country
AppleStoreCatalogID : 906635063
Vendor : Apple:vendor_id:2014-103391

Video
ID : 1
Format : AVC
Format/Info : Advanced Video Codec
Format profile : High@L4.1
Format settings, CABAC : Yes
Format settings, ReFrames : 9 frames
Codec ID : avc1
Codec ID/Info : Advanced Video Coding
Duration : 1h 42mn
Bit rate : 4 863 Kbps
Maximum bit rate : 24.0 Mbps
Width : 1 280 pixels
Height : 692 pixels
Display aspect ratio : 1.85:1
Frame rate mode : Constant
Frame rate : 24.000 fps
Color space : YUV
Chroma subsampling : 4:2:0
Bit depth : 8 bits
Scan type : Progressive
Bits/(Pixel*Frame) : 0.229
Stream size : 3.49 GiB (86%)
Language : English
Encoded date : UTC 2014-09-28 14:58:43
Tagged date : UTC 2014-09-28 14:59:31
Matrix coefficients : BT.709

Audio #1
ID : 2
Format : AAC
Format/Info : Advanced Audio Codec
Format profile : LC
Codec ID : 40
Duration : 1h 42mn
Bit rate mode : Variable
Bit rate : 144 Kbps
Maximum bit rate : 202 Kbps
Channel(s) : 2 channels
Channel positions : Front: L R
Sampling rate : 48.0 KHz
Compression mode : Lossy
Stream size : 107 MiB (3%)
Title : AAC DUB
Language : Russian
Encoded date : UTC 2014-09-28 14:59:23
Tagged date : UTC 2014-09-28 14:59:31

Audio #2
ID : 3
Format : AC-3
Format/Info : Audio Coding 3
Mode extension : CM (complete main)
Format settings, Endianness : Big
Codec ID : ac-3
Duration : 1h 42mn
Bit rate mode : Constant
Bit rate : 640 Kbps
Channel(s) : 6 channels
Channel positions : Front: L C R, Side: L R, LFE
Sampling rate : 48.0 KHz
Bit depth : 16 bits
Compression mode : Lossy
Stream size : 470 MiB (11%)
Title : AC3 DUB
Language : Russian
Encoded date : UTC 2014-09-28 14:59:27
Tagged date : UTC 2014-09-28 14:59:31
x264 лог

x264 [info]: frame I:1571 Avg QP:14.14 size:191520
x264 [info]: frame P:40144 Avg QP:18.05 size: 52023
x264 [info]: frame B:106269 Avg QP:20.98 size: 12787
x264 [info]: consecutive B-frames: 4.3% 4.5% 21.5% 31.1% 14.4% 18.8% 3.6% 0.8% 0.5% 0.2% 0.1% 0.0% 0.1% 0.0% 0.0%
x264 [info]: mb I I16..4: 21.0% 41.0% 38.0%
x264 [info]: mb P I16..4: 0.5% 5.0% 2.3% P16..4: 27.6% 36.6% 16.3% 5.9% 1.5% skip: 4.4%
x264 [info]: mb B I16..4: 0.0% 0.7% 0.4% B16..8: 36.8% 19.0% 3.4% direct: 4.5% skip:35.3% L0:36.5% L1:47.4% BI:16.1%
x264 [info]: 8x8 transform intra:58.3% inter:44.2%
x264 [info]: coded y,uvDC,uvAC intra: 94.2% 26.1% 13.9% inter: 24.5% 3.6% 1.1%
x264 [info]: i16 v,h,dc,p: 7% 9% 44% 41%
x264 [info]: i8 v,h,dc,ddl,ddr,vr,hd,vl,hu: 11% 10% 7% 9% 13% 13% 12% 12% 12%
x264 [info]: i4 v,h,dc,ddl,ddr,vr,hd,vl,hu: 19% 11% 5% 8% 13% 12% 11% 10% 11%
x264 [info]: i8c dc,h,v,p: 22% 59% 14% 5%
x264 [info]: Weighted P-Frames: Y:3.7% UV:0.9%
x264 [info]: ref P L0: 59.3% 10.1% 12.4% 5.5% 3.9% 3.2% 2.5% 1.4% 1.3% 0.3% 0.0%
x264 [info]: ref B L0: 87.6% 5.8% 2.8% 1.2% 1.0% 0.8% 0.6% 0.3%
x264 [info]: ref B L1: 94.6% 5.4%
x264 [info]: kb/s:4862.97
   
Торрент: Зарегистрирован [07 ноя 2014, 20:40] Фильмы HD Скачать торрент
Скачать торрент
[ Размер 10.65 КБ / Просмотров 29 ]
Статус:
Проверен
 
.torrent скачан: 127 раз
Размер: 4.06 ГБ (4 360 440 866 байт)
   
Аватара пользователя
Бубочка
Администратор
Администратор
 
Раздал: 7.29 ТБ
Скачал: 419.06 ГБ
Ратио: 150.817
Сообщения: 4935
Зарегистрирован: 13 дек 2013, 01:15


  • Похожие торренты
    Ответы
    Просмотры
    Последнее сообщение

Вернуться в Фильмы HD

Кто сейчас на конференции

Сейчас этот форум просматривают: нет зарегистрированных пользователей и гости: 5

cron
Ресурс не предоставляет электронные версии произведений, а занимается лишь коллекционированием и каталогизацией ссылок, присылаемых и публикуемых на форуме нашими читателями. Если вы являетесь правообладателем какого-либо представленного материала и не желаете чтобы ссылка на него находилась в нашем каталоге, свяжитесь с нами и мы незамедлительно удалим её. Файлы для обмена на трекере предоставлены пользователями сайта, и администрация не несёт ответственности за их содержание. Просьба не заливать файлы, защищенные авторскими правами, а также файлы нелегального содержания!
cron
ppkBB3cker v.2 © 2008-2014 @ PPK