Дом / House (2008) BDRip-AVC - скачать торрент

Фильмы высокого разрешения в формате HD
 Статистика раздачи 
Размер: 2.69 ГБ   |  Зарегистрирован: 30 ноя 2014, 08:16   |   .torrent скачан: 169 раз
Сидеров: 76  [ 0 байт/сек ]     Личеров: 18  [ 0 байт/сек ]  
  

Сообщение Бубочка » 30 ноя 2014, 08:16


Информация о фильме
Название: Дом
Оригинальное название: House
Год выхода: 2008
Жанр: Ужасы, триллер, драма
Режиссер: Робби Хенсон
В ролях: Майкл Мэдсен, Рейнальдо Розалес, Джули Энн Эмери, Билл Моусли, Лью Темпл, Павел Делонг, Лэнс Хенриксен, Вероника Розати

О фильме:
Две пары совершенно разными путями по стечению пугающих обстоятельств встречаются вместе в странном доме. Одна пара после автомобильной аварии, вторая — ища спасения от преследования маньяка. Теперь они под крышей и в безопасности… Вот только загадочные обитатели этого дома, вызывают у людей желание покинуть это убежище как можно скорее. Но путь назад отрезан, Оловянный Человек не даст им выйти. Так молодые люди оказываются против своей воли вовлечёнными в жестокую игру с садистскими правилами. Игра должна быть окончена на рассвете, путь к выживанию — дом, но он таит в себе не меньше опасностей, чем выходки маньяка. Помощь приходит с неожиданной стороны… но быть может это не помощь, а всего лишь часть еще более изощрённого плана…



Страна: США, More Entertainment
Продолжительность: 01:28:17
Перевод: Профессиональный двухголосый
Субтитры: Английские
Дата релиза: 08.02.2013

Файл
Кодек: H.264
Качество: BDRip-AVC
Видео: MPEG-4 AVC, 3459 Кбит/с, 1024x576
Звук: Русский (AC3, 6 ch, 448 Кбит/с), английский (AC3, 6 ch, 448 Кбит/с)
Общее
Уникальный идентификатор : 193076437981441356703804758642322941081 (0x91412B5A494551D48FF4F3E190B1A499)
Полное имя : D: Dom.2008.x264.(BDRip).mkv
Формат : Matroska
Версия формата : Version 2
Размер файла : 2,69 Гбайт
Продолжительность : 1 ч. 28 м.
Общий поток : 4354 Кбит/сек
Название фильма : Dom.2008.x264.(BDRip).ExKinoRay
Дата кодирования : UTC 2013-02-08 16:59:24
Программа кодирования : mkvmerge v4.0.0 ('The Stars were mine') сборка от Jun 6 2010 16:18:42
Библиотека кодирования : libebml v1.0.0 + libmatroska v1.0.0

Видео
Идентификатор : 1
Формат : AVC
Формат/Информация : Advanced Video Codec
Профиль формата : High@L4.1
Параметр CABAC формата : Да
Параметр ReFrames формата : 8 кадров
Идентификатор кодека : V_MPEG4/ISO/AVC
Продолжительность : 1 ч. 28 м.
Битрейт : 3459 Кбит/сек
Ширина : 1024 пикселя
Высота : 576 пикселей
Соотношение сторон : 16:9
Частота кадров : 23,976 кадра/сек
Цветовое пространство : YUV
Субдискретизация насыщенности : 4:2:0
Битовая глубина : 8 бит
Тип развёртки : Прогрессивная
Бит/(Пиксели*Кадры) : 0.245
Размер потока : 2,08 Гбайт (77%)
Заголовок : Rip by Enigma-Vladislav71
Библиотека кодирования : x264 core 129 r2245 bc13772
Настройки программы : cabac=1 / ref=8 / deblock=1:-2:-2 / analyse=0x3:0x133 / me=umh / subme=11 / psy=1 / psy_rd=1.00:0.00 / mixed_ref=1 / me_range=48 / chroma_me=1 / trellis=2 / 8x8dct=1 / cqm=0 / deadzone=21,11 / fast_pskip=0 / chroma_qp_offset=-2 / threads=3 / lookahead_threads=1 / sliced_threads=0 / nr=0 / decimate=0 / interlaced=0 / bluray_compat=0 / constrained_intra=0 / bframes=8 / b_pyramid=2 / b_adapt=2 / b_bias=0 / direct=3 / weightb=1 / open_gop=0 / weightp=2 / keyint=240 / keyint_min=23 / scenecut=40 / intra_refresh=0 / rc_lookahead=40 / rc=2pass / mbtree=1 / bitrate=3459 / ratetol=1.0 / qcomp=0.60 / qpmin=10 / qpmax=51 / qpstep=4 / cplxblur=20.0 / qblur=0.5 / ip_ratio=1.40 / aq=2:1.00
Язык : English

Аудио #1
Идентификатор : 2
Формат : AC-3
Формат/Информация : Audio Coding 3
Расширение режима : CM (complete main)
Идентификатор кодека : A_AC3
Продолжительность : 1 ч. 28 м.
Вид битрейта : Постоянный
Битрейт : 448 Кбит/сек
Каналы : 6 каналов
Расположение каналов : Front: L C R, Side: L R, LFE
Частота : 48,0 КГц
Битовая глубина : 16 бит
Метод сжатия : С потерями
Размер потока : 283 Мбайт (10%)
Язык : Russian

Аудио #2
Идентификатор : 3
Формат : AC-3
Формат/Информация : Audio Coding 3
Расширение режима : CM (complete main)
Идентификатор кодека : A_AC3
Продолжительность : 1 ч. 28 м.
Вид битрейта : Постоянный
Битрейт : 448 Кбит/сек
Каналы : 6 каналов
Расположение каналов : Front: L C R, Side: L R, LFE
Частота : 48,0 КГц
Битовая глубина : 16 бит
Метод сжатия : С потерями
Размер потока : 283 Мбайт (10%)
Язык : English

Текст
Идентификатор : 4
Формат : UTF-8
Идентификатор кодека : S_TEXT/UTF8
Идентификатор кодека/Информация : UTF-8 Plain Text
Язык : English
   
Торрент: Зарегистрирован [30 ноя 2014, 08:16] Фильмы HD Скачать торрент
Скачать торрент
[ Размер 14.07 КБ / Просмотров 35 ]
Статус:
Проверен
 
.torrent скачан: 169 раз
Размер: 2.69 ГБ (2 883 328 376 байт)
   
Аватара пользователя
Бубочка
Администратор
Администратор
 
Раздал: 7.29 ТБ
Скачал: 419.06 ГБ
Ратио: 150.817
Сообщения: 4936
Зарегистрирован: 13 дек 2013, 01:15


  • Похожие торренты
    Ответы
    Просмотры
    Последнее сообщение

Вернуться в Фильмы HD

Кто сейчас на конференции

Сейчас этот форум просматривают: нет зарегистрированных пользователей и гости: 1

cron
Ресурс не предоставляет электронные версии произведений, а занимается лишь коллекционированием и каталогизацией ссылок, присылаемых и публикуемых на форуме нашими читателями. Если вы являетесь правообладателем какого-либо представленного материала и не желаете чтобы ссылка на него находилась в нашем каталоге, свяжитесь с нами и мы незамедлительно удалим её. Файлы для обмена на трекере предоставлены пользователями сайта, и администрация не несёт ответственности за их содержание. Просьба не заливать файлы, защищенные авторскими правами, а также файлы нелегального содержания!
cron
ppkBB3cker v.2 © 2008-2014 @ PPK