История дельфина 2 / Dolphin Tale 2 (2014) BDRip 720p | Лицензия - скачать торрент

Фильмы высокого разрешения в формате HD
 Статистика раздачи 
Размер: 6.28 ГБ   |  Зарегистрирован: 14 дек 2014, 10:54   |   .torrent скачан: 0 раз
Сидеров: 7  [ 0 байт/сек ]     Личеров: 0  [ 0 байт/сек ]  
  

Сообщение Бубочка » 14 дек 2014, 10:54


Информация о фильме
Название: История дельфина 2
Оригинальное название: Dolphin Tale 2
Год выхода: 2014
Жанр: семейный
Режиссер: Чарльз Мартин Смит / Charles Martin Smith
В ролях: Морган Фримен, Эшли Джадд, Нэйтан Гэмбл, Гарри Конник мл., Кози Цуельсдорфф, Крис Кристофферсон, Джулия Винтер, Остин Стоуэлл, Остин Хигсмит, Джулиана Харкви

О фильме:
Прошло несколько лет после событий, описываемых в первом фильме. Суррогатная мать Уинтер, старая дельфиниха по имени Панама, скончалась. В итоге Уинтер осталась одна, а по законам Министерства сельского хозяйства США дельфинов нельзя содержать по одному.



Страна: США
Студия: Alcon Entertainment, Boxing Cat Films
Продолжительность: 01:47:14
Перевод: Профессиональный (дублированный)

Файл
Кодек: mkv
Качество: BDRip 720p
Видео: MPEG-4 AVC, 6940 Кбит/с, 1280x720, 23,976 fps
Звук:
Аудио 1: Rus, AC3, 640 kb/s (6 ch), 48 kHz
Аудио 2: Eng, AC3, 640 kb/s (6 ch), 48 kHz
Субтитры: Rus, Eng
Format : Matroska
Format version : Version 4 / Version 2
File size : 6.28 GiB
Duration : 1h 47mn
Overall bit rate : 8 387 Kbps
Movie name : Tonik
Encoded date : UTC 2014-12-14 05:01:18
Writing application : mkvmerge v7.1.0 ('Good Love') 64bit built on Jul 27 2014 13:06:55
Writing library : libebml v1.3.0 + libmatroska v1.4.1
DURATION : 01:47:14.144000000
NUMBER_OF_FRAMES : 201067
NUMBER_OF_BYTES : 514731520
_STATISTICS_WRITING_APP : mkvmerge v7.1.0 ('Good Love') 64bit built on Jul 27 2014 13:06:55
_STATISTICS_WRITING_DATE_UTC : 2014-12-14 05:01:18
_STATISTICS_TAGS : BPS DURATION NUMBER_OF_FRAMES NUMBER_OF_BYTES

Video
ID : 1
Format : AVC
Format/Info : Advanced Video Codec
Format profile : High@L4.1
Format settings, CABAC : Yes
Format settings, ReFrames : 9 frames
Codec ID : V_MPEG4/ISO/AVC
Bit rate : 6 940 Kbps
Width : 1 280 pixels
Height : 720 pixels
Display aspect ratio : 16:9
Frame rate mode : Variable
Original frame rate : 23.976 fps
Color space : YUV
Chroma subsampling : 4:2:0
Bit depth : 8 bits
Scan type : Progressive
Writing library : x264 core 142 r2431kMod ac76440
Encoding settings : cabac=1 / ref=9 / deblock=1:-3:-3 / analyse=0x3:0x133 / me=umh / subme=11 / psy=1 / fade_compensate=0.00 / psy_rd=1.00:0.00 / mixed_ref=1 / me_range=24 / chroma_me=1 / trellis=2 / 8x8dct=1 / cqm=0 / deadzone=21,11 / fast_pskip=0 / chroma_qp_offset=-2 / threads=24 / lookahead_threads=4 / sliced_threads=0 / nr=0 / decimate=0 / interlaced=0 / bluray_compat=0 / constrained_intra=0 / fgo=0 / bframes=8 / b_pyramid=2 / b_adapt=2 / b_bias=0 / direct=3 / weightb=1 / open_gop=0 / weightp=2 / keyint=250 / keyint_min=23 / scenecut=40 / intra_refresh=0 / rc=crf / mbtree=0 / crf=17.5000 / qcomp=0.70 / qpmin=0 / qpmax=69 / qpstep=4 / ip_ratio=1.20 / pb_ratio=1.10 / aq=3:0.80
Language : English
Default : Yes
Forced : No
DURATION : 01:47:14.136000000
NUMBER_OF_FRAMES : 154265
NUMBER_OF_BYTES : 5713715346
_STATISTICS_WRITING_APP : mkvmerge v7.1.0 ('Good Love') 64bit built on Jul 27 2014 13:06:55
_STATISTICS_WRITING_DATE_UTC : 2014-12-14 05:01:18
_STATISTICS_TAGS : BPS DURATION NUMBER_OF_FRAMES NUMBER_OF_BYTES

Audio #1
ID : 2
Format : AC-3
Format/Info : Audio Coding 3
Mode extension : CM (complete main)
Format settings, Endianness : Big
Codec ID : A_AC3
Duration : 1h 47mn
Bit rate mode : Constant
Bit rate : 640 Kbps
Channel(s) : 6 channels
Channel positions : Front: L C R, Side: L R, LFE
Sampling rate : 48.0 KHz
Bit depth : 16 bits
Compression mode : Lossy
Stream size : 491 MiB (8%)
Language : Russian
Default : Yes
Forced : No

Audio #2
ID : 3
Format : AC-3
Format/Info : Audio Coding 3
Mode extension : CM (complete main)
Format settings, Endianness : Big
Codec ID : A_AC3
Duration : 1h 47mn
Bit rate mode : Constant
Bit rate : 640 Kbps
Channel(s) : 6 channels
Channel positions : Front: L C R, Side: L R, LFE
Sampling rate : 48.0 KHz
Bit depth : 16 bits
Compression mode : Lossy
Stream size : 491 MiB (8%)
Language : English
Default : No
Forced : No

Text #1
ID : 4
Format : UTF-8
Codec ID : S_TEXT/UTF8
Codec ID/Info : UTF-8 Plain Text
Title : forced
Language : Russian
Default : Yes
Forced : No

Text #2
ID : 5
Format : UTF-8
Codec ID : S_TEXT/UTF8
Codec ID/Info : UTF-8 Plain Text
Language : Russian
Default : No
Forced : No

Text #3
ID : 6
Format : UTF-8
Codec ID : S_TEXT/UTF8
Codec ID/Info : UTF-8 Plain Text
Language : English
Default : No
Forced : No

Text #4
ID : 7
Format : UTF-8
Codec ID : S_TEXT/UTF8
Codec ID/Info : UTF-8 Plain Text
Title : SDH
Language : English
Default : No
Forced : No

Menu
00:00:00.000 : en:00:00:00.000
00:10:42.058 : en:00:10:42.058
00:20:34.859 : en:00:20:34.859
00:30:43.967 : en:00:30:43.967
00:41:08.966 : en:00:41:08.966
00:50:24.438 : en:00:50:24.438
00:59:16.428 : en:00:59:16.428
01:11:01.424 : en:01:11:01.424
01:19:51.745 : en:01:19:51.745
01:31:45.083 : en:01:31:45.083
01:36:05.259 : en:01:36:05.259
   
Торрент: Зарегистрирован [14 дек 2014, 10:54] Фильмы HD Скачать торрент
Скачать торрент
[ Размер 16.38 КБ / Просмотров 22 ]
Статус:
Проверен
 
.torrent скачан: 0 раз
Размер: 6.28 ГБ (6 745 258 663 байт)
   
Аватара пользователя
Бубочка
Администратор
Администратор
 
Раздал: 7.29 ТБ
Скачал: 419.06 ГБ
Ратио: 150.817
Сообщения: 4932
Зарегистрирован: 13 дек 2013, 01:15


  • Похожие торренты
    Ответы
    Просмотры
    Последнее сообщение

Вернуться в Фильмы HD

Кто сейчас на конференции

Сейчас этот форум просматривают: нет зарегистрированных пользователей и гости: 3

cron
Ресурс не предоставляет электронные версии произведений, а занимается лишь коллекционированием и каталогизацией ссылок, присылаемых и публикуемых на форуме нашими читателями. Если вы являетесь правообладателем какого-либо представленного материала и не желаете чтобы ссылка на него находилась в нашем каталоге, свяжитесь с нами и мы незамедлительно удалим её. Файлы для обмена на трекере предоставлены пользователями сайта, и администрация не несёт ответственности за их содержание. Просьба не заливать файлы, защищенные авторскими правами, а также файлы нелегального содержания!
cron
ppkBB3cker v.2 © 2008-2014 @ PPK