13 грехов / 13 Sins (2014) BDRip 720p | Чистый звук - скачать торрент

Фильмы высокого разрешения в формате HD
 Статистика раздачи 
Размер: 3.9 ГБ   |  Зарегистрирован: 10 янв 2015, 14:47   |   .torrent скачан: 1034 раз
Сидеров: 489  [ 0 байт/сек ]     Личеров: 13  [ 0 байт/сек ]  
  

Сообщение Бубочка » 10 янв 2015, 14:46


Информация о фильме
Название: 13 грехов
Оригинальное название: 13 Sins
Год выхода: 2014
Жанр: триллер, ужасы
Режиссер: Даниэль Штамм / Daniel Stamm
В ролях: Марк Веббер, Рутина Уэсли, Девон Грайе, Прюитт Тэйлор Винс, Том Бауэр, Рон Перлман, Клайд Джонс, Денин Тайлер, Tom S. Lawson Jr., Sharon Smith...

О фильме:
Элиот Бриндл — умный кроткий сотрудник службы социального обеспечения, тонущий в долгах. Но все меняется, когда раздается телефонный звонок. Ему сообщают, что он становится участником тв-шоу, условия простые — выполнить 13 заданий, какими бы странными они не были; приз — деньги, которые копятся с каждым выполненным заданием. Эллиот следует первым инструкциям и с легкостью съедает пойманную муху. Вскоре Эллиот хочет, но не может прекратить игру, хотя задачи становятся более опасными, а точка невозврата скоро будет пройдена.



Страна: США
Студия: Automatik Entertainment, IM Global, Little Magic Films
Продолжительность: 01:32:32
Перевод: Дублированное [Чистый звук]

Файл
Кодек: x264
Качество: BDRip 720p
Видео: MPEG-4 AVC, 4017 Кбит/с, 1280x536, 23,976 fps
Звук:
Rus, AC3, 384 kb/s (2 ch), 48 kHz
Eng, DTS, 1510 kb/s (6 ch), 48 kHz
Субтитры: Rus, Eng
Format : Matroska
Format version : Version 4 / Version 2
File size : 3.90 GiB
Duration : 1h 32mn
Overall bit rate : 6 030 Kbps
Movie name : Tonik
Encoded date : UTC 2015-01-10 10:00:34
Writing application : mkvmerge v7.1.0 ('Good Love') 64bit built on Jul 27 2014 13:06:55
Writing library : libebml v1.3.0 + libmatroska v1.4.1
DURATION : 01:27:49.139000000
NUMBER_OF_FRAMES : 1068
NUMBER_OF_BYTES : 42172
_STATISTICS_WRITING_APP : mkvmerge v7.1.0 ('Good Love') 64bit built on Jul 27 2014 13:06:55
_STATISTICS_WRITING_DATE_UTC : 2015-01-10 10:00:34
_STATISTICS_TAGS : BPS DURATION NUMBER_OF_FRAMES NUMBER_OF_BYTES

Video
ID : 1
Format : AVC
Format/Info : Advanced Video Codec
Format profile : High@L4.1
Format settings, CABAC : Yes
Format settings, ReFrames : 12 frames
Codec ID : V_MPEG4/ISO/AVC
Duration : 1h 32mn
Bit rate : 4 017 Kbps
Width : 1 280 pixels
Height : 536 pixels
Display aspect ratio : 2.40:1
Frame rate mode : Constant
Frame rate : 23.976 fps
Color space : YUV
Chroma subsampling : 4:2:0
Bit depth : 8 bits
Scan type : Progressive
Bits/(Pixel*Frame) : 0.244
Stream size : 2.60 GiB (67%)
Writing library : x264 core 140 r2377kMod 1ca7bb9
Encoding settings : cabac=1 / ref=12 / deblock=1:-3:-3 / analyse=0x3:0x133 / me=umh / subme=9 / psy=1 / fade_compensate=0.00 / psy_rd=1.05:0.00 / mixed_ref=1 / me_range=32 / chroma_me=1 / trellis=2 / 8x8dct=1 / cqm=0 / deadzone=21,11 / fast_pskip=0 / chroma_qp_offset=-2 / threads=18 / lookahead_threads=3 / sliced_threads=0 / nr=0 / decimate=0 / interlaced=0 / bluray_compat=0 / constrained_intra=0 / fgo=0 / bframes=8 / b_pyramid=2 / b_adapt=2 / b_bias=0 / direct=3 / weightb=1 / open_gop=0 / weightp=2 / keyint=250 / keyint_min=23 / scenecut=40 / intra_refresh=0 / rc=crf / mbtree=0 / crf=17.5000 / qcomp=0.70 / qpmin=0 / qpmax=69 / qpstep=4 / ip_ratio=1.40 / pb_ratio=1.25 / aq=2:0.80
Language : English
Default : Yes
Forced : No
DURATION : 01:32:31.963000000
NUMBER_OF_FRAMES : 133114
NUMBER_OF_BYTES : 2868985177
_STATISTICS_WRITING_APP : mkvmerge v7.1.0 ('Good Love') 64bit built on Jul 27 2014 13:06:55
_STATISTICS_WRITING_DATE_UTC : 2015-01-10 10:00:34
_STATISTICS_TAGS : BPS DURATION NUMBER_OF_FRAMES NUMBER_OF_BYTES

Audio #1
ID : 2
Format : AC-3
Format/Info : Audio Coding 3
Mode extension : CM (complete main)
Format settings, Endianness : Big
Codec ID : A_AC3
Duration : 1h 32mn
Bit rate mode : Constant
Bit rate : 384 Kbps
Channel(s) : 2 channels
Channel positions : Front: L R
Sampling rate : 48.0 KHz
Bit depth : 16 bits
Compression mode : Lossy
Stream size : 254 MiB (6%)
Language : Russian
Default : Yes
Forced : No

Audio #2
ID : 3
Format : DTS
Format/Info : Digital Theater Systems
Mode : 16
Format settings, Endianness : Big
Codec ID : A_DTS
Duration : 1h 32mn
Bit rate mode : Constant
Bit rate : 1 509 Kbps
Channel(s) : 6 channels
Channel positions : Front: L C R, Side: L R, LFE
Sampling rate : 48.0 KHz
Bit depth : 24 bits
Compression mode : Lossy
Stream size : 999 MiB (25%)
Language : English
Default : No
Forced : No

Text #1
ID : 4
Format : UTF-8
Codec ID : S_TEXT/UTF8
Codec ID/Info : UTF-8 Plain Text
Language : Russian
Default : No
Forced : No

Text #2
ID : 5
Format : UTF-8
Codec ID : S_TEXT/UTF8
Codec ID/Info : UTF-8 Plain Text
Language : English
Default : No
Forced : No

Menu
00:00:00.000 : en:00:00:00.000
00:05:10.602 : en:00:05:10.602
00:10:52.610 : en:00:10:52.610
00:16:12.972 : en:00:16:12.972
00:23:14.685 : en:00:23:14.685
00:28:38.926 : en:00:28:38.926
00:35:55.528 : en:00:35:55.528
00:40:40.897 : en:00:40:40.897
00:48:50.177 : en:00:48:50.177
00:56:12.077 : en:00:56:12.077
01:03:46.823 : en:01:03:46.823
01:11:24.447 : en:01:11:24.447
01:15:58.262 : en:01:15:58.262
01:22:09.716 : en:01:22:09.716
01:28:21.296 : en:01:28:21.296
   
Торрент: Зарегистрирован [10 янв 2015, 14:47] Фильмы HD Скачать торрент
Скачать торрент
[ Размер 20.14 КБ / Просмотров 23 ]
Статус:
Проверен
 
.torrent скачан: 1034 раз
Размер: 3.9 ГБ (4 184 673 273 байт)
   
Аватара пользователя
Бубочка
Администратор
Администратор
 
Раздал: 7.29 ТБ
Скачал: 419.06 ГБ
Ратио: 150.817
Сообщения: 4935
Зарегистрирован: 13 дек 2013, 01:15


  • Похожие торренты
    Ответы
    Просмотры
    Последнее сообщение

Вернуться в Фильмы HD

Кто сейчас на конференции

Сейчас этот форум просматривают: нет зарегистрированных пользователей и гости: 5

cron
Ресурс не предоставляет электронные версии произведений, а занимается лишь коллекционированием и каталогизацией ссылок, присылаемых и публикуемых на форуме нашими читателями. Если вы являетесь правообладателем какого-либо представленного материала и не желаете чтобы ссылка на него находилась в нашем каталоге, свяжитесь с нами и мы незамедлительно удалим её. Файлы для обмена на трекере предоставлены пользователями сайта, и администрация не несёт ответственности за их содержание. Просьба не заливать файлы, защищенные авторскими правами, а также файлы нелегального содержания!
cron
ppkBB3cker v.2 © 2008-2014 @ PPK