Перекресток / Collision / Intersections (2013) BDRip 720p | L, L1 - скачать торрент

Фильмы высокого разрешения в формате HD
 Статистика раздачи 
Размер: 5.32 ГБ   |  Зарегистрирован: 17 мар 2014, 22:47   |   .torrent скачан: 11 раз
Сидеров: 51  [ 0 байт/сек ]     Личеров: 62  [ 0 байт/сек ]  
  

Сообщение Бубочка » 17 мар 2014, 22:47


Информация о фильме
Название: Перекресток
Оригинальное название: Collision / Intersections
Год выхода: 2013
Жанр: триллер
Режиссер: Дэвид Маркони
В ролях: Фрэнк Грилло, Джейми Александер, Рошди Зем, Мари-Жозе Кроз, Мусса Мааскри, Чарли Бьюли, Аффиф Бен Бадра, Карлос Леаль, Габриэлла Райт, Абделила Надиф

О фильме:
Скот и Тейлор — молодая семейная пара, которая решила провести медовый месяц в Марокко. Они заказали номер в шикарном отеле, расположенном посреди пустыни, и отправились на отдых. Приехав на место, они решают отправится в пустыню, чтобы покататься на автомобиле. От езды на большой скорости Скот получает огромное удовольствие, а вот его супруга очень недовольна его ребячеством. Через некоторое время им становится совсем не до шуток. В их автомобиль врезается джип, и неизвестный водитель начинает преследовать парочку, пока они не попадают в аварию. На этом их райский отдых закончен, и, как оказывается позднее, все что с ними произошло — не случайность...



Выпущено: Франция
Продолжительность: 01:41:25

Озвучивание:
Любительское (многоголосое) [Точка Zрения]
Любительское (одноголосое) [ХиХиДок]

Файл
Формат: MKV
Качество: BDRip 720p [GIU]
Видео: 5555 kb/s, 1280х538

Аудио:
Russian [Точка Zрения]: AC3, 192 kb/s (2 ch)
Russian [ХиХиДок]: AC3, 256 kb/s (2 ch)
English: DTS, 1510 kb/s (6 ch)
Дополнительно: Сохранены оригинальные чаптеры как на Blu-Ray

Сэмпл - http://yadi.sk/d/2nQTbuVGKhv8Q
Общее
Collision.2013.Blu.Ray.720p.mkv
Формат : Matroska
Версия формата : Version 4 / Version 2
Размер файла : 5,32 Гбайт
Продолжительность : 1 ч. 41 м.
Общий поток : 7508 Кбит/сек
Название фильма : Collision
Дата кодирования : UTC 2014-03-17 18:11:42
Программа кодирования : mkvmerge v6.8.0 ('Theme for Great Cities') 64bit built on Mar 2 2014 21:34:26
Библиотека кодирования : libebml v1.3.0 + libmatroska v1.4.1

Видео
Идентификатор : 1
Формат : AVC
Формат/Информация : Advanced Video Codec
Профиль формата : High@L4.1
Параметр CABAC формата : Да
Параметр ReFrames формата : 12 кадров
Идентификатор кодека : V_MPEG4/ISO/AVC
Продолжительность : 1 ч. 41 м.
Битрейт : 5555 Кбит/сек
Ширина : 1280 пикселей
Высота : 538 пикселей
Соотношение сторон : 2,40:1
Режим частоты кадров : Постоянный
Частота кадров : 24,000 кадра/сек
Цветовое пространство : YUV
Субдискретизация насыщенности : 4:2:0
Битовая глубина : 8 бит
Тип развёртки : Прогрессивная
Бит/(Пиксели*Кадры) : 0.336
Размер потока : 3,83 Гбайт (72%)
Заголовок : Collision
Библиотека кодирования : x264 core 133 r2334 a3ac64b
Настройки программы : cabac=1 / ref=12 / deblock=1:-3:-3 / analyse=0x3:0x113 / me=umh / subme=10 / psy=1 / psy_rd=1.00:0.50 / mixed_ref=0 / me_range=24 / chroma_me=1 / trellis=2 / 8x8dct=1 / cqm=0 / deadzone=21,11 / fast_pskip=1 / chroma_qp_offset=-4 / threads=12 / lookahead_threads=1 / sliced_threads=0 / nr=0 / decimate=0 / interlaced=0 / bluray_compat=0 / constrained_intra=0 / bframes=7 / b_pyramid=2 / b_adapt=1 / b_bias=0 / direct=1 / weightb=1 / open_gop=0 / weightp=2 / keyint=240 / keyint_min=24 / scenecut=40 / intra_refresh=0 / rc_lookahead=20 / rc=2pass / mbtree=1 / bitrate=5555 / ratetol=1.0 / qcomp=0.70 / qpmin=0 / qpmax=69 / qpstep=4 / cplxblur=20.0 / qblur=0.5 / vbv_maxrate=62500 / vbv_bufsize=78125 / nal_hrd=none / ip_ratio=1.40 / aq=1:1.00
Язык : English
Default : Нет
Forced : Нет

Аудио #1
Идентификатор : 2
Формат : AC-3
Формат/Информация : Audio Coding 3
Расширение режима : CM (complete main)
Параметр Endianness формата : Big
Идентификатор кодека : A_AC3
Продолжительность : 1 ч. 41 м.
Вид битрейта : Постоянный
Битрейт : 192 Кбит/сек
Каналы : 2 канала
Расположение каналов : Front: L R
Частота : 48,0 КГц
Битовая глубина : 16 бит
Метод сжатия : С потерями
Размер потока : 139 Мбайт (3%)
Заголовок : Точка Zрения
Язык : Russian
Default : Да
Forced : Да

Аудио #2
Идентификатор : 3
Формат : AC-3
Формат/Информация : Audio Coding 3
Расширение режима : CM (complete main)
Параметр Endianness формата : Big
Идентификатор кодека : A_AC3
Продолжительность : 1 ч. 41 м.
Вид битрейта : Постоянный
Битрейт : 256 Кбит/сек
Каналы : 2 канала
Расположение каналов : Front: L R
Частота : 48,0 КГц
Битовая глубина : 16 бит
Метод сжатия : С потерями
Размер потока : 186 Мбайт (3%)
Заголовок : ХиХидок
Язык : Russian
Default : Нет
Forced : Нет

Аудио #3
Идентификатор : 4
Формат : DTS
Формат/Информация : Digital Theater Systems
Режим : 16
Параметр Endianness формата : Big
Идентификатор кодека : A_DTS
Продолжительность : 1 ч. 41 м.
Вид битрейта : Постоянный
Битрейт : 1509 Кбит/сек
Каналы : 6 каналов
Расположение каналов : Front: L C R, Side: L R, LFE
Частота : 48,0 КГц
Битовая глубина : 24 бит
Метод сжатия : С потерями
Размер потока : 1,07 Гбайт (20%)
Язык : English
Default : Нет
Forced : Нет

Меню
00:00:00.000 : en:00:00:00.000
00:07:54.333 : en:00:07:54.333
00:16:10.125 : en:00:16:10.125
00:25:08.958 : en:00:25:08.958
00:34:26.917 : en:00:34:26.917
00:42:47.125 : en:00:42:47.125
00:53:30.542 : en:00:53:30.542
00:59:19.417 : en:00:59:19.417
01:06:06.292 : en:01:06:06.292
01:10:09.500 : en:01:10:09.500
01:30:26.500 : en:01:30:26.500
01:37:16.792 : en:01:37:16.792
   
Торрент: Зарегистрирован [17 мар 2014, 22:47] Фильмы HD Скачать торрент
Скачать торрент
[ Размер 27.16 КБ / Просмотров 68 ]
Статус:
Проверен
 
.torrent скачан: 11 раз
Размер: 5.32 ГБ (5 711 241 609 байт)
   
Аватара пользователя
Бубочка
Администратор
Администратор
 
Раздал: 7.29 ТБ
Скачал: 419.06 ГБ
Ратио: 150.817
Сообщения: 4932
Зарегистрирован: 13 дек 2013, 01:15


  • Похожие торренты
    Ответы
    Просмотры
    Последнее сообщение

Вернуться в Фильмы HD

Кто сейчас на конференции

Сейчас этот форум просматривают: нет зарегистрированных пользователей и гости: 5

cron
Ресурс не предоставляет электронные версии произведений, а занимается лишь коллекционированием и каталогизацией ссылок, присылаемых и публикуемых на форуме нашими читателями. Если вы являетесь правообладателем какого-либо представленного материала и не желаете чтобы ссылка на него находилась в нашем каталоге, свяжитесь с нами и мы незамедлительно удалим её. Файлы для обмена на трекере предоставлены пользователями сайта, и администрация не несёт ответственности за их содержание. Просьба не заливать файлы, защищенные авторскими правами, а также файлы нелегального содержания!
cron
ppkBB3cker v.2 © 2008-2014 @ PPK