Убей меня три раза / Kill Me Three Times (2014) WEB-DL 720p | L1 - скачать торрент

Фильмы высокого разрешения в формате HD
 Статистика раздачи 
Размер: 3.02 ГБ   |  Зарегистрирован: 31 мар 2015, 23:04   |   .torrent скачан: 148 раз
Сидеров: 341  [ 0 байт/сек ]     Личеров: 5  [ 0 байт/сек ]  
  

Сообщение Бубочка » 31 мар 2015, 23:04


Информация о фильме
Название: Убей меня три раза
Оригинальное название: Kill Me Three Times
Год выхода: 2014
Жанр: боевик, триллер
Режиссер: Крив Стендерс
В ролях: Тереза Палмер, Саймон Пегг, Люк Хемсворт, Алиси Брага, Салливан Степлтон, Каллэн Мулвей, Брайан Браун, Стив Ле Маркванд, Тони Спенсер, Анна Филп

О фильме: Молодая женщина, живущая в австралийском городке, является нитью, которая связывает три истории — убийства, шантажа и мести.



Выпущено: США, Австралия
Продолжительность: 01:30:22
Озвучивание: Любительское (одноголосное) [PashaUp]

Файл
Формат: MKV
Качество: WEB-DL 720p
Видео: 3923 kb/s, 1280x532
Аудио: Russian: AC3, 384 kb/s (2 ch) / English: AC3, 384 kb/s (6 ch)
Субтитры: English
Format : Matroska
Format version : Version 4 / Version 2
File size : 3.02 GiB
Duration : 1h 30mn
Overall bit rate : 4 787 Kbps
Encoded date : UTC 2015-03-31 13:19:37
Writing application : mkvmerge v6.1.0 ('Old Devil') built on Mar 4 2013 09:10:42
Writing library : libebml v1.3.0 + libmatroska v1.4.0

Video
ID : 1
Format : AVC
Format/Info : Advanced Video Codec
Format profile : Main@L3.1
Format settings, CABAC : No
Format settings, ReFrames : 2 frames
Codec ID : V_MPEG4/ISO/AVC
Duration : 1h 30mn
Bit rate : 3 923 Kbps
Width : 1 280 pixels
Height : 532 pixels
Display aspect ratio : 2.40:1
Frame rate : 23.976 fps
Color space : YUV
Chroma subsampling : 4:2:0
Bit depth : 8 bits
Scan type : Progressive
Bits/(Pixel*Frame) : 0.240
Stream size : 2.48 GiB (82%)
Language : English
Default : Yes
Forced : No
Color primaries : BT.709-5, BT.1361, IEC 61966-2-4, SMPTE RP177
Transfer characteristics : BT.709-5, BT.1361
Matrix coefficients : BT.709-5, BT.1361, IEC 61966-2-4 709, SMPTE RP177

Audio #1
ID : 2
Format : AC-3
Format/Info : Audio Coding 3
Mode extension : CM (complete main)
Format settings, Endianness : Big
Codec ID : A_AC3
Duration : 1h 30mn
Bit rate mode : Constant
Bit rate : 384 Kbps
Channel(s) : 2 channels
Channel positions : Front: L R
Sampling rate : 48.0 KHz
Bit depth : 16 bits
Compression mode : Lossy
Stream size : 248 MiB (8%)
Language : Russian
Default : Yes
Forced : No

Audio #2
ID : 3
Format : AC-3
Format/Info : Audio Coding 3
Mode extension : CM (complete main)
Format settings, Endianness : Big
Codec ID : A_AC3
Duration : 1h 30mn
Bit rate mode : Constant
Bit rate : 384 Kbps
Channel(s) : 6 channels
Channel positions : Front: L C R, Side: L R, LFE
Sampling rate : 48.0 KHz
Bit depth : 16 bits
Compression mode : Lossy
Stream size : 248 MiB (8%)
Language : English
Default : No
Forced : No

Text
ID : 4
Format : UTF-8
Codec ID : S_TEXT/UTF8
Codec ID/Info : UTF-8 Plain Text
Language : English
Default : No
Forced : No

Menu
00:00:00.000 : en:1
00:06:35.000 : en:2
00:11:32.000 : en:3
00:17:09.000 : en:4
00:23:18.000 : en:5
00:28:22.000 : en:6
00:34:02.000 : en:7
00:40:21.000 : en:8
00:48:11.000 : en:9
00:53:21.000 : en:10
00:59:42.000 : en:11
01:05:30.000 : en:12
01:10:54.000 : en:13
01:15:00.000 : en:14
01:20:00.000 : en:15
01:23:43.000 : en:16
   
Торрент: Зарегистрирован [31 мар 2015, 23:04] Фильмы HD Скачать торрент
Скачать торрент
[ Размер 15.67 КБ / Просмотров 35 ]
Статус:
Проверен
 
.torrent скачан: 148 раз
Размер: 3.02 ГБ (3 244 466 316 байт)
   
Аватара пользователя
Бубочка
Администратор
Администратор
 
Раздал: 7.29 ТБ
Скачал: 419.06 ГБ
Ратио: 150.817
Сообщения: 4906
Зарегистрирован: 13 дек 2013, 01:15


  • Похожие торренты
    Ответы
    Просмотры
    Последнее сообщение

Вернуться в Фильмы HD

Кто сейчас на конференции

Сейчас этот форум просматривают: нет зарегистрированных пользователей и гости: 2

Ресурс не предоставляет электронные версии произведений, а занимается лишь коллекционированием и каталогизацией ссылок, присылаемых и публикуемых на форуме нашими читателями. Если вы являетесь правообладателем какого-либо представленного материала и не желаете чтобы ссылка на него находилась в нашем каталоге, свяжитесь с нами и мы незамедлительно удалим её. Файлы для обмена на трекере предоставлены пользователями сайта, и администрация не несёт ответственности за их содержание. Просьба не заливать файлы, защищенные авторскими правами, а также файлы нелегального содержания!
cron
ppkBB3cker v.2 © 2008-2014 @ PPK