Три девятки / Triple 9 (2016) BDRip 720p | iTunes - скачать торрент

Фильмы высокого разрешения в формате HD
 Статистика раздачи 
Размер: 4.32 ГБ   |  Зарегистрирован: 14 авг 2016, 08:38   |   .torrent скачан: 25726 раз
Сидеров: 293  [ 0 байт/сек ]     Личеров: 45  [ 0 байт/сек ]  
  

Сообщение Бубочка » 02 апр 2016, 18:29


Название: Три девятки
Оригинальное название: Triple 9
Год выхода: 2016
Жанр: Боевик, Криминал, Драма
Режиссер: Джон Хиллкоут
В ролях: Аарон Пол, Кейт Уинслет, Вуди Харрельсон, Кейси Аффлек, Энтони Маки, Чиветель Эджиофор, Галь Гадот, Норман Ридус, Тереза Палмер, Майкл Кеннет Уильямс

О фильме:
Банда преступников и коррумпированных копов планирует убить полицейского, чтобы провернуть ограбление на другом конце города.



Страна: США
Студия: Anonymous Content, MadRiver Pictures, Worldview Entertainment
Продолжительность: 01:55:45
Перевод: Дублированный (iTunes)
Субтитры: Русские, английские

Файл
Качество видео: BDRip 720p
Видео: AVC, 1280x536 (2.35:1), 23.976 fps, 4 510 Kbps (0.274 bit/pixel)
Аудио #1: AC-3, 48.0 KHz, 6 ch, 384 Kbps, CBR (Russian)
Аудио #2: AC-3, 48.0 KHz, 6 ch, 448 Kbps, CBR (English)
Формат : Matroska
Версия формата : Version 2
Размер файла : 4,32 Гбайт
Продолжительность : 1 ч. 55 м.
Общий поток : 5347 Кбит/сек
Дата кодирования : UTC 2016-05-29 14:07:37
Программа кодирования : mkvmerge v5.3.0 ('I could have danced') built on Feb 9 2012 10:38:07
Библиотека кодирования : libebml v1.2.3 + libmatroska v1.3.0
Attachment : Yes

Видео
Идентификатор : 1
Формат : AVC
Формат/Информация : Advanced Video Codec
Профиль формата : High@L4.1
Параметр CABAC формата : Да
Параметр ReFrames формата : 10 кадров
Идентификатор кодека : V_MPEG4/ISO/AVC
Продолжительность : 1 ч. 55 м.
Битрейт : 4510 Кбит/сек
Ширина : 1280 пикселей
Высота : 536 пикселей
Соотношение сторон : 2,40:1
Режим частоты кадров : Постоянный
Частота кадров : 23,976 кадра/сек
Цветовое пространство : YUV
Субдискретизация насыщенности : 4:2:0
Битовая глубина : 8 бит
Тип развёртки : Прогрессивная
Бит/(Пиксели*Кадры) : 0.274
Размер потока : 3,56 Гбайт (82%)
Библиотека кодирования : x264 core 146 r2538 121396c
Настройки программы : cabac=1 / ref=10 / deblock=1:-3:-3 / analyse=0x3:0x133 / me=umh / subme=11 / psy=1 / psy_rd=1.00:0.10 / mixed_ref=1 / me_range=32 / chroma_me=1 / trellis=2 / 8x8dct=1 / cqm=0 / deadzone=21,11 / fast_pskip=0 / chroma_qp_offset=-3 / threads=12 / lookahead_threads=2 / sliced_threads=0 / nr=0 / decimate=0 / interlaced=0 / bluray_compat=0 / constrained_intra=0 / bframes=8 / b_pyramid=2 / b_adapt=2 / b_bias=0 / direct=3 / weightb=1 / open_gop=0 / weightp=2 / keyint=240 / keyint_min=23 / scenecut=40 / intra_refresh=0 / rc=2pass / mbtree=0 / bitrate=4510 / ratetol=1.0 / qcomp=0.60 / qpmin=0 / qpmax=69 / qpstep=4 / cplxblur=20.0 / qblur=0.5 / ip_ratio=1.40 / pb_ratio=1.30 / aq=2:0.70
Язык : English
Default : Да
Forced : Нет

Аудио #1
Идентификатор : 2
Формат : AC-3
Формат/Информация : Audio Coding 3
Расширение режима : CM (complete main)
Параметр Endianness формата : Big
Идентификатор кодека : A_AC3
Продолжительность : 1 ч. 55 м.
Вид битрейта : Постоянный
Битрейт : 384 Кбит/сек
Каналы : 6 каналов
Расположение каналов : Front: L C R, Side: L R, LFE
Частота : 48,0 КГц
Битовая глубина : 16 бит
Метод сжатия : С потерями
Размер потока : 318 Мбайт (7%)
Заголовок : Дубляж
Язык : Russian
Default : Да
Forced : Нет

Аудио #2
Идентификатор : 3
Формат : AC-3
Формат/Информация : Audio Coding 3
Расширение режима : CM (complete main)
Параметр Endianness формата : Big
Идентификатор кодека : A_AC3
Продолжительность : 1 ч. 55 м.
Вид битрейта : Постоянный
Битрейт : 448 Кбит/сек
Каналы : 6 каналов
Расположение каналов : Front: L C R, Side: L R, LFE
Частота : 48,0 КГц
Битовая глубина : 16 бит
Метод сжатия : С потерями
Размер потока : 371 Мбайт (8%)
Заголовок : оригинал
Язык : English
Default : Нет
Forced : Нет

Текст #1
Идентификатор : 4
Формат : UTF-8
Идентификатор кодека : S_TEXT/UTF8
Идентификатор кодека/Информация : UTF-8 Plain Text
Язык : Russian
Default : Нет
Forced : Нет

Текст #2
Идентификатор : 5
Формат : UTF-8
Идентификатор кодека : S_TEXT/UTF8
Идентификатор кодека/Информация : UTF-8 Plain Text
Язык : English
Default : Нет
Forced : Нет

Меню
00:00:00.000 : en:00:00:00
00:05:34.459 : en:00:05:34
00:12:18.029 : en:00:12:18
00:15:57.039 : en:00:15:57
00:20:25.724 : en:00:20:25
00:28:39.468 : en:00:28:39
00:34:28.942 : en:00:34:28
00:39:29.576 : en:00:39:29
00:44:32.879 : en:00:44:32
00:48:10.888 : en:00:48:10
00:56:32.639 : en:00:56:32
01:02:03.178 : en:01:02:03
01:07:03.019 : en:01:07:03
01:12:12.620 : en:01:12:12
01:16:22.495 : en:01:16:22
01:21:41.647 : en:01:21:41
01:26:30.102 : en:01:26:30
01:32:35.675 : en:01:32:35
01:41:34.255 : en:01:41:34
01:50:13.315 : en:01:50:13
x264
x264 [info]: profile High, level 4.1
x264 [info]: frame I:1083 Avg QP:18.24 size:116699 PSNR Mean Y:45.04 U:47.55 V:47.86 Avg:45.73 Global:45.31
x264 [info]: frame P:32807 Avg QP:20.83 size: 42109 PSNR Mean Y:42.92 U:46.34 V:47.06 Avg:43.82 Global:43.39
x264 [info]: frame B:132646 Avg QP:22.87 size: 18158 PSNR Mean Y:41.34 U:45.22 V:45.90 Avg:42.30 Global:41.81
x264 [info]: consecutive B-frames: 1.4% 2.8% 5.8% 11.1% 13.4% 45.5% 8.6% 6.4% 5.0%
   
Торрент: Зарегистрирован [14 авг 2016, 08:38] Фильмы HD Скачать торрент
Скачать торрент
[ Размер 22.33 КБ / Просмотров 7 ]
Статус:
Проверен
 
.torrent скачан: 25726 раз
Размер: 4.32 ГБ (4 642 345 433 байт)
   
Аватара пользователя
Бубочка
Администратор
Администратор
 
Раздал: 7.29 ТБ
Скачал: 419.06 ГБ
Ратио: 150.817
Сообщения: 4930
Зарегистрирован: 13 дек 2013, 01:15


  • Похожие торренты
    Ответы
    Просмотры
    Последнее сообщение

Вернуться в Фильмы HD

Кто сейчас на конференции

Сейчас этот форум просматривают: нет зарегистрированных пользователей и гости: 1

cron
Ресурс не предоставляет электронные версии произведений, а занимается лишь коллекционированием и каталогизацией ссылок, присылаемых и публикуемых на форуме нашими читателями. Если вы являетесь правообладателем какого-либо представленного материала и не желаете чтобы ссылка на него находилась в нашем каталоге, свяжитесь с нами и мы незамедлительно удалим её. Файлы для обмена на трекере предоставлены пользователями сайта, и администрация не несёт ответственности за их содержание. Просьба не заливать файлы, защищенные авторскими правами, а также файлы нелегального содержания!
cron
ppkBB3cker v.2 © 2008-2014 @ PPK