Космический пират Харлок / Space Pirate Captain Harlock (2013) BDRip 720p | UNRATED | Чистый звук - скачать торрент

 Статистика раздачи 
Размер: 4.29 ГБ   |  Зарегистрирован: 19 июл 2014, 20:42   |   .torrent скачан: 69 раз
Сидеров: 72  [ 0 байт/сек ]     Личеров: 1  [ 0 байт/сек ]  
  

Сообщение Бубочка » 19 июл 2014, 20:42


Информация о фильме
Название: Космический пират Харлок
Оригинальное название: Space Pirate Captain Harlock
Год выпуска: 2013
Жанр: мультфильм, фантастика, боевик, приключения
Режиссер: Синдзи Арамаки
В ролях: Шун Огури, Аои Ю, Аяно Фукуда, Арата Фурута, Киёси Кобаяси, Харума Миура, Морикава Тосиюки, Тикао Оцука, Маая Сакамото, Миюки Савасиро

О фильме: Далекое будущее. Преступная корпорация Гайя стала злейшим врагом Земли, отобрав у людей все: свободу, дом, будущее… Казалось, что надежды на спасение нет… Но, появился Он — космический пират Харлок, капитан призрачного корабля Аркадия. Беглец, готовый сражаться за Землю. Кто Он, герой или преступник?..



Выпущено: Япония, США, Франция
Продолжительность: 01:55:06
Озвучивание: Дублированное [Чистый звук]
Примечание: Расширенная версия. Недостающие 5 минут перевода озвучены многоголосым переводом.

Файл
Формат: MKV (H.264)
Качество: BDRip 720p
Видео: MPEG-4 AVC, 3500 Кбит/с, 1280x536
Аудио: Русский (MP3, 2 ch, 320 Кбит/с), японский (DTS, 6 ch, 1510 Кбит/c)
Субтитры: Русские, английские
Дополнительно: Сохранены оригинальные чаптеры
General
Unique ID : 238944889505521579525433291667165191973 (0xB3C31C9D5508DAACA285E1691E789F25)
Название : D:Мои фильмы и мультыPirat.Harlok.2013.D.BDRip.720p.mkv
Формат : Matroska
Формат version : Version 4 / Version 2
Размер файла : 4.29 GiB
Длительность : 1h 55mn
Общий Битрейт : 5 332 Kbps
Movie name : SPACE.PIRATE.CAPTAIN.HARLOCK.2013.BDRip.720p-HDREACTOR.ORG
Encoded date : UTC 2014-07-18 19:10:29
Создано приложением : mkvmerge v6.5.0 ('Isn't she lovely') built on Oct 20 2013 12:50:05
Writing library : libebml v1.3.0 + libmatroska v1.4.1

Video
ID : 1
Формат : AVC
Формат/Info : Advanced Video Кодек
Формат profile : High@L4.1
Формат настройки, CABAC : Yes
Формат настройки, ReFrames : 12 frames
Кодек ID : V_MPEG4/ISO/AVC
Длительность : 1h 55mn
Битрейт : 3 500 Kbps
Width : 1 280 пикселей
Высота : 536 пикселей
Соотношение кадра : 2.40:1
Частота кадров mode : Constant
Частота кадров : 23.976 fps
Цветопередача : YUV
Chroma subsampling : 4:2:0
Разрядность : 8 bits
Тип сканирования : Progressive
Bits/(Pixel*Frame) : 0.213
Размер потока : 2.73 GiB (64%)
Title : SPACE.PIRATE.CAPTAIN.HARLOCK.2013.BDRip.720p
Writing library : x264 core 129 r2245+704+36 8e61944 tMod+MixAQ [8-bit@4:2:0 X86_64]
Encoding настройки : cabac=1 / ref=12 / deblock=1:-1:-1 / analyse=0x3:0x133 / me=umh / subme=11 / psy=1 / fade_compensate=0.00 / psy_rd=0.60:0.00 / mixed_ref=1 / me_range=32 / chroma_me=1 / trellis=2 / 8x8dct=1 / cqm=0 / deadzone=21,11 / fast_pskip=0 / chroma_qp_offset=-2 / threads=18 / lookahead_threads=3 / sliced_threads=0 / nr=0 / decimate=0 / interlaced=0 / bluray_compat=0 / constrained_intra=0 / fgo=0 / bframes=10 / b_pyramid=2 / b_adapt=2 / b_bias=0 / direct=3 / weightb=1 / open_gop=0 / weightp=2 / keyint=250 / keyint_min=23 / scenecut=40 / intra_refresh=0 / rc=2pass / mbtree=0 / bitrate=3500 / ratetol=1.0 / qcomp=0.70 / qpmin=0 / qpmax=69 / qpstep=4 / cplxblur=20.0 / qblur=0.5 / ip_ratio=1.40 / pb_ratio=1.30 / aq=3 / aq-strength=0.95 / aq-sensitivity=10.00 / aq-ifactor=1.00 / aq-pfactor=1.00 / aq-bfactor=1.00 / aq2=0
Язык : English
Default : Yes
Forced : No

Audio #1
ID : 2
Формат : MPEG Audio
Формат version : Version 1
Формат profile : Layer 3
Mode : Joint stereo
Кодек ID : A_MPEG/L3
Кодек ID/Hint : MP3
Длительность : 1h 55mn
Битрейт mode : Constant
Битрейт : 320 Kbps
Каналы(s) : 2 канала
Частота : 48.0 KHz
Режим сжатия : Lossy
Размер потока : 263 MiB (6%)
Default : Yes
Forced : No

Audio #2
ID : 3
Формат : DTS
Формат/Info : Digital Theater Systems
Mode : 16
Формат настройки, Endianness : Big
Кодек ID : A_DTS
Длительность : 1h 55mn
Битрейт mode : Constant
Битрейт : 1 509 Kbps
Каналы(s) : 6 каналов
Каналы positions : Front: L C R, Side: L R, LFE
Частота : 48.0 KHz
Разрядность : 24 bits
Режим сжатия : Lossy
Размер потока : 1.21 GiB (28%)
Title : Japanese DTS (48 KHz; 1509 Kbps; 6 ch; 24 bits)
Язык : Japanese
Default : No
Forced : No

Text #1
ID : 4
Формат : UTF-8
Кодек ID : S_TEXT/UTF8
Кодек ID/Info : UTF-8 Plain Text
Title : Russian_1 (SRT)
Язык : Russian
Default : Yes
Forced : No

Text #2
ID : 5
Формат : UTF-8
Кодек ID : S_TEXT/UTF8
Кодек ID/Info : UTF-8 Plain Text
Title : Russian_2 (SRT)
Default : No
Forced : No

Text #3
ID : 6
Формат : UTF-8
Кодек ID : S_TEXT/UTF8
Кодек ID/Info : UTF-8 Plain Text
Title : English (SRT)
Язык : English
Default : No
Forced : No
   
Торрент: Зарегистрирован [19 июл 2014, 20:42] Мультфильмы Скачать торрент
Скачать торрент
[ Размер 21.93 КБ / Просмотров 41 ]
Статус:
Проверен
 
.torrent скачан: 69 раз
Размер: 4.29 ГБ (4 602 936 202 байт)
   
Аватара пользователя
Бубочка
Администратор
Администратор
 
Раздал: 7.29 ТБ
Скачал: 419.06 ГБ
Ратио: 150.817
Сообщения: 4928
Зарегистрирован: 13 дек 2013, 01:15


  • Похожие торренты
    Ответы
    Просмотры
    Последнее сообщение

Вернуться в Мультфильмы

Кто сейчас на конференции

Сейчас этот форум просматривают: нет зарегистрированных пользователей и гости: 1

Ресурс не предоставляет электронные версии произведений, а занимается лишь коллекционированием и каталогизацией ссылок, присылаемых и публикуемых на форуме нашими читателями. Если вы являетесь правообладателем какого-либо представленного материала и не желаете чтобы ссылка на него находилась в нашем каталоге, свяжитесь с нами и мы незамедлительно удалим её. Файлы для обмена на трекере предоставлены пользователями сайта, и администрация не несёт ответственности за их содержание. Просьба не заливать файлы, защищенные авторскими правами, а также файлы нелегального содержания!
cron
ppkBB3cker v.2 © 2008-2014 @ PPK