Кунг-фу Панда / Kung Fu Panda (2008) BDRip-AVC | Solod - скачать торрент

 Статистика раздачи 
Размер: 1.33 ГБ   |  Зарегистрирован: 01 май 2016, 02:05   |   .torrent скачан: 1 раз
Сидеров: 1  [ 0 байт/сек ]     Личеров: 0  [ 0 байт/сек ]  
  

Сообщение dieug » 01 май 2016, 02:05


Название: Кунг-фу Панда
Оригинальное название: Kung Fu Panda
Перевод: Любительский (одноголосый) Solod, cубтитры: есть (русские, английские)
Формат: BDRip-AVC, MKV, H.264, AC3

Страна: США
Режиссер: Марк Осборн, Джон Стивенсон
Жанр: мультфильм, боевик, комедия, приключения, семейный
Продолжительность: 01:32:09
Год выпуска: 2008
В ролях: Джек Блэк, Дастин Хоффман, Анджелина Джоли, Иэн МакШейн, Джеки Чан, Сет Роген, Люси Лью, Дэвид Кросс, Рэндолл Дак Ким, Джеймс Хонг

Описание: Спасение Долины Мира и всех ее обитателей от непобедимого и безжалостного мастера Тай Лунга должно лечь на плечи Воина Дракона, Избранного среди лучших из лучших, коим становится… неуклюжий, ленивый и вечно голодный панда По.
Ему предстоит долгий и трудный путь к вершинам мастерства кунг-фу бок о бок с легендарными воинами: Тигрой, Обезьяной, Богомолом, Гадюкой и Журавлем. По постигнет тайну древнего Свитка и станет Воином Дракона только в том случае, если сможет поверить в себя…




Видео: 1024x436 (2.35:1), 23.976 fps, AVC(H264), High@L4.1, 1600 kbps, 0.149 bpp
Аудио: 48kHz, ac3 dolby digital, 5.1 ch, 448 kbbs
General
Unique ID : 206825579083895870238281985553542965203 (0x9B9928589FABA786473EBB43F87067D3)
Complete name : kung.fu.panda.2008.1024.solod.rus.5.1.mkv
Format : Matroska
Format version : Version 4 / Version 2
File size : 1.33 GiB
Duration : 1h 32mn
Overall bit rate : 2 066 Kbps
Movie name : Kung Fu Panda 2008
Released date : 2008
Encoded date : UTC 2016-02-24 22:18:43 / UTC 2016-02-23T22:08:36Z
Writing application : mkvmerge v8.8.0 ('Wind at my back') 64bit
Writing library : libebml v1.3.3 + libmatroska v1.4.4 / Lavf55.12.0

Video
ID : 1
Format : AVC
Format/Info : Advanced Video Codec
Format profile : High@L4.1
Format settings, CABAC : Yes
Format settings, ReFrames : 4 frames
Codec ID : V_MPEG4/ISO/AVC
Duration : 1h 32mn
Bit rate : 1 600 Kbps
Width : 1 024 pixels
Height : 436 pixels
Display aspect ratio : 2.35:1
Original display aspect ratio : 2.35:1
Frame rate mode : Constant
Frame rate : 23.976 (24000/1001) fps
Color space : YUV
Chroma subsampling : 4:2:0
Bit depth : 8 bits
Scan type : Progressive
Bits/(Pixel*Frame) : 0.149
Stream size : 1.02 GiB (76%)
Writing library : x264 core 148
Encoding settings : cabac=1 / ref=1 / deblock=1:0:0 / analyse=0x3:0x113 / me=hex / subme=9 / psy=1 / psy_rd=1,00:0,00 / mixed_ref=0 / me_range=16 / chroma_me=1 / trellis=0 / 8x8dct=1 / cqm=0 / deadzone=21,11 / fast_pskip=1 / chroma_qp_offset=-2 / threads=6 / lookahead_threads=1 / sliced_threads=0 / nr=0 / decimate=1 / interlaced=0 / bluray_compat=0 / constrained_intra=0 / bframes=3 / b_pyramid=2 / b_adapt=1 / b_bias=0 / direct=1 / weightb=1 / open_gop=0 / weightp=1 / keyint=240 / keyint_min=24 / scenecut=40 / intra_refresh=0 / rc_lookahead=10 / rc=2pass / mbtree=1 / bitrate=1600 / ratetol=1,0 / qcomp=0,60 / qpmin=0 / qpmax=69 / qpstep=4 / cplxblur=20,0 / qblur=0,5 / vbv_maxrate=62500 / vbv_bufsize=78125 / nal_hrd=none / filler=0 / ip_ratio=1,40 / aq=1:1,00
Default : Yes
Forced : No
Color range : Limited
Color primaries : BT.709
Transfer characteristics : BT.709
Matrix coefficients : BT.709
Statistics Tags Issue : mkvmerge v8.8.0 ('Wind at my back') 64bit 2016-02-24 22:18:43 / mkvmerge v8.8.0 ('Wind at my back') 64bit 2016-02-24 22:18:43 / UTC 2016-02-23T22:08:36Z
FromStats_BitRate : 1599779
FromStats_Duration : 01:32:09.483000000
FromStats_FrameCount : 132575
FromStats_StreamSize : 1105744456

Audio
ID : 2
Format : AC-3
Format/Info : Audio Coding 3
Mode extension : CM (complete main)
Format settings, Endianness : Big
Codec ID : A_AC3
Duration : 1h 32mn
Bit rate mode : Constant
Bit rate : 448 Kbps
Channel(s) : 6 channels
Channel positions : Front: L C R, Side: L R, LFE
Sampling rate : 48.0 KHz
Frame rate : 31.250 fps (1536 spf)
Compression mode : Lossy
Delay relative to video : -83ms
Stream size : 295 MiB (22%)
Title : vo solod
Language : Russian
Default : Yes
Forced : No
Statistics Tags Issue : mkvmerge v8.8.0 ('Wind at my back') 64bit 2016-02-24 22:18:43 / mkvmerge v8.8.0 ('Wind at my back') 64bit 2016-02-24 22:18:43 / UTC 2016-02-23T22:08:36Z
FromStats_BitRate : 448000
FromStats_Duration : 01:32:09.504000000
FromStats_FrameCount : 172797
FromStats_StreamSize : 309652224

Text #1
ID : 3
Format : UTF-8
Codec ID : S_TEXT/UTF8
Codec ID/Info : UTF-8 Plain Text
Title : rus full
Language : Russian
Default : No
Forced : No
Statistics Tags Issue : mkvmerge v8.8.0 ('Wind at my back') 64bit 2016-02-24 22:18:43 / mkvmerge v8.8.0 ('Wind at my back') 64bit 2016-02-24 22:18:43 / UTC 2016-02-23T22:08:36Z
FromStats_BitRate : 54
FromStats_Duration : 01:31:33.987000000
FromStats_FrameCount : 935
FromStats_StreamSize : 37223

Text #2
ID : 4
Format : PGS
Muxing mode : zlib
Codec ID : S_HDMV/PGS
Codec ID/Info : Picture based subtitle format used on BDs/HD-DVDs
Title : rus full pgs
Language : Russian
Default : No
Forced : No
Statistics Tags Issue : mkvmerge v8.8.0 ('Wind at my back') 64bit 2016-02-24 22:18:43 / mkvmerge v8.8.0 ('Wind at my back') 64bit 2016-02-24 22:18:43 / UTC 2016-02-23T22:08:36Z
FromStats_BitRate : 7715
FromStats_Duration : 01:31:33.988000000
FromStats_FrameCount : 1888
FromStats_StreamSize : 5298758

Text #3
ID : 5
Format : UTF-8
Codec ID : S_TEXT/UTF8
Codec ID/Info : UTF-8 Plain Text
Title : original
Language : English
Default : No
Forced : No
Statistics Tags Issue : mkvmerge v8.8.0 ('Wind at my back') 64bit 2016-02-24 22:18:43 / mkvmerge v8.8.0 ('Wind at my back') 64bit 2016-02-24 22:18:43 / UTC 2016-02-23T22:08:36Z
FromStats_BitRate : 47
FromStats_Duration : 01:25:01.012000000
FromStats_FrameCount : 979
FromStats_StreamSize : 30189

Text #4
ID : 6
Format : PGS
Muxing mode : zlib
Codec ID : S_HDMV/PGS
Codec ID/Info : Picture based subtitle format used on BDs/HD-DVDs
Title : original pgs
Language : English
Default : No
Forced : No
Statistics Tags Issue : mkvmerge v8.8.0 ('Wind at my back') 64bit 2016-02-24 22:18:43 / mkvmerge v8.8.0 ('Wind at my back') 64bit 2016-02-24 22:18:43 / UTC 2016-02-23T22:08:36Z
FromStats_BitRate : 9312
FromStats_Duration : 01:25:01.013000000
FromStats_FrameCount : 1974
FromStats_StreamSize : 5937718

Menu
00:00:00.000 : :Chapter 1
00:02:31.484 : :Chapter 2
00:05:17.150 : :Chapter 3
00:07:58.978 : :Chapter 4
00:10:42.016 : :Chapter 5
00:16:39.415 : :Chapter 6
00:19:28.584 : :Chapter 7
00:22:41.735 : :Chapter 8
00:26:19.953 : :Chapter 9
00:31:13.955 : :Chapter 10
00:35:26.207 : :Chapter 11
00:38:35.688 : :Chapter 12
00:42:34.844 : :Chapter 13
00:45:45.993 : :Chapter 14
00:51:29.795 : :Chapter 15
00:56:29.135 : :Chapter 16
00:58:48.441 : :Chapter 17
01:02:06.306 : :Chapter 18
01:06:52.967 : :Chapter 19
01:09:53.022 : :Chapter 20
01:14:05.566 : :Chapter 21
01:20:04.549 : :Chapter 22
01:23:12.070 : :Chapter 23




















   
Торрент: Зарегистрирован [01 май 2016, 02:05] Мультфильмы Скачать торрент
Скачать торрент
[ Размер 27.61 КБ / Просмотров 3 ]
Статус:
Проверен
 
.torrent скачан: 1 раз
Размер: 1.33 ГБ (1 428 085 431 байт)
   
Аватара пользователя
dieug
Модератор
Модератор
 
Раздал: 6.19 ТБ
Скачал: 391.29 МБ
Ратио: 16940.621
Сообщения: 56
Зарегистрирован: 27 мар 2016, 23:35


  • Похожие торренты
    Ответы
    Просмотры
    Последнее сообщение

Вернуться в Мультфильмы

Кто сейчас на конференции

Сейчас этот форум просматривают: нет зарегистрированных пользователей и гости: 1

cron
Ресурс не предоставляет электронные версии произведений, а занимается лишь коллекционированием и каталогизацией ссылок, присылаемых и публикуемых на форуме нашими читателями. Если вы являетесь правообладателем какого-либо представленного материала и не желаете чтобы ссылка на него находилась в нашем каталоге, свяжитесь с нами и мы незамедлительно удалим её. Файлы для обмена на трекере предоставлены пользователями сайта, и администрация не несёт ответственности за их содержание. Просьба не заливать файлы, защищенные авторскими правами, а также файлы нелегального содержания!
cron
ppkBB3cker v.2 © 2008-2014 @ PPK