Планета сокровищ / Treasure Planet (2002) BDRip-AVC | Solod - скачать торрент

 Статистика раздачи 
Размер: 1.37 ГБ   |  Зарегистрирован: 12 июн 2016, 18:48   |   .torrent скачан: 1 раз
Сидеров: 1  [ 0 байт/сек ]     Личеров: 2  [ 0 байт/сек ]  
  

Сообщение Александр Матросов » 12 июн 2016, 18:49


Название: Планета сокровищ
Оригинальное название: Treasure Planet
Перевод: Любительский (одноголосый) Solod, субтитры: есть (русские, английские)
Формат: BDRip-AVC, MKV, H.264, AC3

Страна: США
Режиссер: Рон Клементс, Джон Маскер
Жанр: мультфильм, фантастика, приключения, семейный
Продолжительность: 01:35:23
Год выпуска: 2002
В ролях: Роско Ли Браун, Кори Бертон, Дэйн А. Дэвис, Джозеф Гордон-Левитт, Тони Джей, Остин Мэйджерс, Патрик МакГуэн, Майкл МакШейн, Лори Меткаф, Брайан Мюррей

Описание: 16-летний Джим Хоукинс отправляется на поиски таинственной Планеты Сокровищ в компании настоящих космических пиратов. Под руководством корабельного кока, киборга Джона Сильвера, он становится умелым «космоплавателем» и не раз спасает космический галеон от самых серьезных опасностей: черных дыр, взрывов сверхновых и космических штормов.
Но главное испытание поджидает юного героя впереди — предательство близкого друга, который вместе с командой матросов пытается обманом захватить все сокровища и скрыться…




Видео: 1024x610 (5:3), 23.976 fps, AVC(H264), High@L4.1, 1600 kbps, 0.107 bpp
Аудио: 48kHz, ac3 dolby digital, 5.1 ch, 448 kbps

General
Unique ID : 269314519674760066513070888557416097338 (0xCA9C16FC7A087494D9D8E996D011263A)
Complete name : treasure.planet.2002.1024.solod.rus.5.1.mkv
Format : Matroska
Format version : Version 4 / Version 2
File size : 1.37 GiB
Duration : 1h 35mn
Overall bit rate : 2 050 Kbps
Movie name : Treasure Planet 2002
Released date : 2002
Encoded date : UTC 2016-06-12 15:00:05 / UTC 2016-06-05T11:51:27Z
Writing application : mkvmerge v9.1.0 ('Little Earthquakes') 64bit
Writing library : libebml v1.3.3 + libmatroska v1.4.4 / Lavf55.12.0

Video
ID : 1
Format : AVC
Format/Info : Advanced Video Codec
Format profile : High@L4.1
Format settings, CABAC : Yes
Format settings, ReFrames : 10 frames
Codec ID : V_MPEG4/ISO/AVC
Duration : 1h 35mn
Bit rate : 1 600 Kbps
Width : 1 024 pixels
Height : 610 pixels
Display aspect ratio : 5:3
Original display aspect ratio : 5:3
Frame rate mode : Constant
Frame rate : 23.976 (24000/1001) fps
Color space : YUV
Chroma subsampling : 4:2:0
Bit depth : 8 bits
Scan type : Progressive
Bits/(Pixel*Frame) : 0.107
Stream size : 1.04 GiB (76%)
Writing library : x264 core 148
Encoding settings : cabac=1 / ref=10 / deblock=1:-2:-2 / analyse=0x3:0x113 / me=umh / subme=11 / psy=1 / psy_rd=1,00:0,00 / mixed_ref=1 / me_range=24 / chroma_me=1 / trellis=2 / 8x8dct=1 / cqm=0 / deadzone=21,11 / fast_pskip=1 / chroma_qp_offset=-2 / threads=6 / lookahead_threads=1 / sliced_threads=0 / nr=0 / decimate=1 / interlaced=0 / bluray_compat=0 / constrained_intra=0 / bframes=11 / b_pyramid=2 / b_adapt=1 / b_bias=0 / direct=1 / weightb=1 / open_gop=0 / weightp=2 / keyint=240 / keyint_min=24 / scenecut=40 / intra_refresh=0 / rc_lookahead=40 / rc=2pass / mbtree=1 / bitrate=1600 / ratetol=1,0 / qcomp=0,60 / qpmin=0 / qpmax=69 / qpstep=4 / cplxblur=20,0 / qblur=0,5 / vbv_maxrate=62500 / vbv_bufsize=78125 / nal_hrd=none / filler=0 / ip_ratio=1,40 / aq=1:1,00
Default : Yes
Forced : No
Color range : Limited
Color primaries : BT.709
Transfer characteristics : BT.709
Matrix coefficients : BT.709
Statistics Tags Issue : mkvmerge v9.1.0 ('Little Earthquakes') 64bit 2016-06-12 15:00:05 / mkvmerge v9.1.0 ('Little Earthquakes') 64bit 2016-06-12 15:00:05 / UTC 2016-06-05T11:51:27Z
FromStats_BitRate : 1599711
FromStats_Duration : 01:35:23.802000000
FromStats_FrameCount : 137234
FromStats_StreamSize : 1144553940

Audio
ID : 2
Format : AC-3
Format/Info : Audio Coding 3
Mode extension : CM (complete main)
Format settings, Endianness : Big
Codec ID : A_AC3
Duration : 1h 35mn
Bit rate mode : Constant
Bit rate : 448 Kbps
Channel(s) : 6 channels
Channel positions : Front: L C R, Side: L R, LFE
Sampling rate : 48.0 KHz
Frame rate : 31.250 fps (1536 spf)
Compression mode : Lossy
Delay relative to video : -83ms
Stream size : 306 MiB (22%)
Title : vo solod
Language : Russian
Default : Yes
Forced : No
Statistics Tags Issue : mkvmerge v9.1.0 ('Little Earthquakes') 64bit 2016-06-12 15:00:05 / mkvmerge v9.1.0 ('Little Earthquakes') 64bit 2016-06-12 15:00:05 / UTC 2016-06-05T11:51:27Z
FromStats_BitRate : 448000
FromStats_Duration : 01:35:23.872000000
FromStats_FrameCount : 178871
FromStats_StreamSize : 320536832

Text #1
ID : 3
Format : UTF-8
Codec ID : S_TEXT/UTF8
Codec ID/Info : UTF-8 Plain Text
Title : rus full
Language : Russian
Default : No
Forced : No
Statistics Tags Issue : mkvmerge v9.1.0 ('Little Earthquakes') 64bit 2016-06-12 15:00:05 / mkvmerge v9.1.0 ('Little Earthquakes') 64bit 2016-06-12 15:00:05 / UTC 2016-06-05T11:51:27Z
FromStats_BitRate : 95
FromStats_Duration : 01:26:51.960000000
FromStats_FrameCount : 1125
FromStats_StreamSize : 62437

Text #2
ID : 4
Format : UTF-8
Codec ID : S_TEXT/UTF8
Codec ID/Info : UTF-8 Plain Text
Title : eng full
Language : English
Default : No
Forced : No
Statistics Tags Issue : mkvmerge v9.1.0 ('Little Earthquakes') 64bit 2016-06-12 15:00:05 / mkvmerge v9.1.0 ('Little Earthquakes') 64bit 2016-06-12 15:00:05 / UTC 2016-06-05T11:51:27Z
FromStats_BitRate : 59
FromStats_Duration : 01:31:37.658000000
FromStats_FrameCount : 1481
FromStats_StreamSize : 40667

Menu
00:00:00.000 : :Chapter 1
00:04:51.291 : :Chapter 2
00:12:09.186 : :Chapter 3
00:16:40.416 : :Chapter 4
00:20:33.482 : :Chapter 5
00:25:03.752 : :Chapter 6
00:30:42.006 : :Chapter 7
00:33:06.025 : :Chapter 8
00:36:43.618 : :Chapter 9
00:42:21.997 : :Chapter 10
00:46:25.157 : :Chapter 11
00:50:50.797 : :Chapter 12
00:55:04.551 : :Chapter 13
00:59:54.424 : :Chapter 14
01:03:46.197 : :Chapter 15
01:08:18.552 : :Chapter 16
01:13:05.589 : :Chapter 17
01:19:24.301 : :Chapter 18
01:23:57.490 : :Chapter 19
01:27:20.193 : :Chapter 20



   
Торрент: Зарегистрирован [12 июн 2016, 18:48] Мультфильмы Скачать торрент
Скачать торрент
[ Размер 28.61 КБ / Просмотров 4 ]
Статус:
Проверен
 
.torrent скачан: 1 раз
Размер: 1.37 ГБ (1 466 524 862 байт)
   
Аватара пользователя
Александр Матросов
Модератор
Модератор
 
Раздал: 6.19 ТБ
Скачал: 391.29 МБ
Ратио: 16940.621
Сообщения: 56
Зарегистрирован: 27 мар 2016, 23:35


  • Похожие торренты
    Ответы
    Просмотры
    Последнее сообщение

Вернуться в Мультфильмы

Кто сейчас на конференции

Сейчас этот форум просматривают: нет зарегистрированных пользователей и гости: 1

cron
Ресурс не предоставляет электронные версии произведений, а занимается лишь коллекционированием и каталогизацией ссылок, присылаемых и публикуемых на форуме нашими читателями. Если вы являетесь правообладателем какого-либо представленного материала и не желаете чтобы ссылка на него находилась в нашем каталоге, свяжитесь с нами и мы незамедлительно удалим её. Файлы для обмена на трекере предоставлены пользователями сайта, и администрация не несёт ответственности за их содержание. Просьба не заливать файлы, защищенные авторскими правами, а также файлы нелегального содержания!
cron
ppkBB3cker v.2 © 2008-2014 @ PPK