Кунг-фу Панда 3 / Kung Fu Panda 3 (2016) BDRip-AVC | Solod - скачать торрент

 Статистика раздачи 
Размер: 1.36 ГБ   |  Зарегистрирован: 14 июн 2016, 21:33   |   .torrent скачан: 3 раз
Сидеров: 1  [ 0 байт/сек ]     Личеров: 1  [ 0 байт/сек ]  
  

Сообщение dieug » 14 июн 2016, 21:34


Название: Кунг-фу Панда 3
Оригинальное название: Kung Fu Panda 3
Перевод: Любительский (одноголосый) Solod, субтитры: есть (русские, английские)
Формат: BDRip, MKV, H.264, AC3

Страна: США, Китай
Режиссер: Алессандро Карлони, Дженнифер Ю
Жанр: мультфильм, боевик, комедия, приключения, семейный
Продолжительность: 01:34:54
Год выпуска: 2016
В ролях: Джек Блэк, Брайан Крэнстон, Дастин Хоффман, Анджелина Джоли, Дж.К. Симмонс, Джеки Чан, Сет Роген, Люси Лью, Дэвид Кросс, Кейт Хадсон

Описание: Воссоединившись со своим давно потерянным отцом, По отправляется в тайный рай для панд, где его ожидает встреча с множеством веселых сородичей. Однако вскоре злодей Кай начинает зачистку — он уничтожает кунг-фу мастеров по всему Китаю.
По предстоит сделать невозможное — обучить боевому искусству деревню, полную его веселых, неуклюжих собратьев, и тем самым превратить их в отряд кунг-фу панд.



Видео: 1024x436 (2.35:1), 23.976 fps, AVC(H264), High@L4.1, 1600 kbps, 0.149 bpp
Аудио: 48kHz, ac3 dolby digital, 5.1 ch, 448 kbps

Лучше бы остановились на второй части и не дергались.
)

General
Unique ID : 248546047157972524769962668200975984690 (0xBAFC3A3C00956A911B5F44BDB2A0E832)
Complete name : kung.fu.panda.3.2016.1024.solod.rus.5.1.mkv
Format : Matroska
Format version : Version 4 / Version 2
File size : 1.36 GiB
Duration : 1h 34mn
Overall bit rate : 2 050 Kbps
Movie name : Kung Fu Panda III 2016
Released date : 2016
Encoded date : UTC 2016-06-14 17:23:47 / UTC 2016-06-12T19:25:28Z
Writing application : mkvmerge v9.1.0 ('Little Earthquakes') 64bit
Writing library : libebml v1.3.3 + libmatroska v1.4.4 / Lavf55.12.0

Video
ID : 1
Format : AVC
Format/Info : Advanced Video Codec
Format profile : High@L4.1
Format settings, CABAC : Yes
Format settings, ReFrames : 10 frames
Codec ID : V_MPEG4/ISO/AVC
Duration : 1h 34mn
Bit rate : 1 600 Kbps
Width : 1 024 pixels
Height : 436 pixels
Display aspect ratio : 2.35:1
Original display aspect ratio : 2.35:1
Frame rate mode : Constant
Frame rate : 23.976 (24000/1001) fps
Color space : YUV
Chroma subsampling : 4:2:0
Bit depth : 8 bits
Scan type : Progressive
Bits/(Pixel*Frame) : 0.149
Stream size : 1.03 GiB (76%)
Writing library : x264 core 148
Encoding settings : cabac=1 / ref=10 / deblock=1:-2:-2 / analyse=0x3:0x113 / me=umh / subme=11 / psy=1 / psy_rd=1,00:0,00 / mixed_ref=1 / me_range=24 / chroma_me=1 / trellis=2 / 8x8dct=1 / cqm=0 / deadzone=21,11 / fast_pskip=1 / chroma_qp_offset=-2 / threads=6 / lookahead_threads=1 / sliced_threads=0 / nr=0 / decimate=1 / interlaced=0 / bluray_compat=0 / constrained_intra=0 / bframes=11 / b_pyramid=2 / b_adapt=1 / b_bias=0 / direct=1 / weightb=1 / open_gop=0 / weightp=2 / keyint=240 / keyint_min=24 / scenecut=40 / intra_refresh=0 / rc_lookahead=40 / rc=2pass / mbtree=1 / bitrate=1600 / ratetol=1,0 / qcomp=0,60 / qpmin=0 / qpmax=69 / qpstep=4 / cplxblur=20,0 / qblur=0,5 / vbv_maxrate=62500 / vbv_bufsize=78125 / nal_hrd=none / filler=0 / ip_ratio=1,40 / aq=1:1,00
Default : Yes
Forced : No
Color range : Limited
Color primaries : BT.709
Transfer characteristics : BT.709
Matrix coefficients : BT.709
Statistics Tags Issue : mkvmerge v9.1.0 ('Little Earthquakes') 64bit 2016-06-14 17:23:47 / mkvmerge v9.1.0 ('Little Earthquakes') 64bit 2016-06-14 17:23:47 / UTC 2016-06-12T19:25:28Z
FromStats_BitRate : 1599510
FromStats_Duration : 01:34:54.689000000
FromStats_FrameCount : 136536
FromStats_StreamSize : 1138589629

Audio
ID : 2
Format : AC-3
Format/Info : Audio Coding 3
Mode extension : CM (complete main)
Format settings, Endianness : Big
Codec ID : A_AC3
Duration : 1h 34mn
Bit rate mode : Constant
Bit rate : 448 Kbps
Channel(s) : 6 channels
Channel positions : Front: L C R, Side: L R, LFE
Sampling rate : 48.0 KHz
Frame rate : 31.250 fps (1536 spf)
Compression mode : Lossy
Delay relative to video : -83ms
Stream size : 304 MiB (22%)
Title : vo solod
Language : Russian
Default : Yes
Forced : No
Statistics Tags Issue : mkvmerge v9.1.0 ('Little Earthquakes') 64bit 2016-06-14 17:23:47 / mkvmerge v9.1.0 ('Little Earthquakes') 64bit 2016-06-14 17:23:47 / UTC 2016-06-12T19:25:28Z
FromStats_BitRate : 448000
FromStats_Duration : 01:34:54.720000000
FromStats_FrameCount : 177960
FromStats_StreamSize : 318904320

Text #1
ID : 3
Format : UTF-8
Codec ID : S_TEXT/UTF8
Codec ID/Info : UTF-8 Plain Text
Title : rus full
Language : Russian
Default : No
Forced : No
Statistics Tags Issue : mkvmerge v9.1.0 ('Little Earthquakes') 64bit 2016-06-14 17:23:47 / mkvmerge v9.1.0 ('Little Earthquakes') 64bit 2016-06-14 17:23:47 / UTC 2016-06-12T19:25:28Z
FromStats_BitRate : 76
FromStats_Duration : 01:34:08.022000000
FromStats_FrameCount : 1254
FromStats_StreamSize : 53756

Text #2
ID : 4
Format : UTF-8
Codec ID : S_TEXT/UTF8
Codec ID/Info : UTF-8 Plain Text
Title : eng full
Language : English
Default : No
Forced : No
Statistics Tags Issue : mkvmerge v9.1.0 ('Little Earthquakes') 64bit 2016-06-14 17:23:47 / mkvmerge v9.1.0 ('Little Earthquakes') 64bit 2016-06-14 17:23:47 / UTC 2016-06-12T19:25:28Z
FromStats_BitRate : 64
FromStats_Duration : 01:29:29.488000000
FromStats_FrameCount : 1773
FromStats_StreamSize : 43094

Menu
00:00:00.000 : :Chapter 1
00:05:21.863 : :Chapter 2
00:08:10.323 : :Chapter 3
00:10:00.099 : :Chapter 4
00:12:25.536 : :Chapter 5
00:15:24.298 : :Chapter 6
00:19:08.313 : :Chapter 7
00:24:39.478 : :Chapter 8
00:30:17.690 : :Chapter 9
00:33:54.073 : :Chapter 10
00:36:18.342 : :Chapter 11
00:39:55.726 : :Chapter 12
00:43:31.901 : :Chapter 13
00:46:45.928 : :Chapter 14
00:51:41.264 : :Chapter 15
00:56:04.694 : :Chapter 16
00:59:48.251 : :Chapter 17
01:02:11.394 : :Chapter 18
01:05:27.048 : :Chapter 19
01:10:16.921 : :Chapter 20
01:14:06.984 : :Chapter 21
01:17:06.205 : :Chapter 22
01:20:34.037 : :Chapter 23
01:24:21.222 : :Chapter 24

















   
Торрент: Зарегистрирован [14 июн 2016, 21:33] Мультфильмы Скачать торрент
Скачать торрент
[ Размер 28.47 КБ / Просмотров 6 ]
Статус:
Проверен
 
.torrent скачан: 3 раз
Размер: 1.36 ГБ (1 458 939 331 байт)
   
Аватара пользователя
dieug
Модератор
Модератор
 
Раздал: 6.19 ТБ
Скачал: 391.29 МБ
Ратио: 16940.621
Сообщения: 56
Зарегистрирован: 27 мар 2016, 23:35


  • Похожие торренты
    Ответы
    Просмотры
    Последнее сообщение

Вернуться в Мультфильмы

Кто сейчас на конференции

Сейчас этот форум просматривают: нет зарегистрированных пользователей и гости: 1

cron
Ресурс не предоставляет электронные версии произведений, а занимается лишь коллекционированием и каталогизацией ссылок, присылаемых и публикуемых на форуме нашими читателями. Если вы являетесь правообладателем какого-либо представленного материала и не желаете чтобы ссылка на него находилась в нашем каталоге, свяжитесь с нами и мы незамедлительно удалим её. Файлы для обмена на трекере предоставлены пользователями сайта, и администрация не несёт ответственности за их содержание. Просьба не заливать файлы, защищенные авторскими правами, а также файлы нелегального содержания!
cron
ppkBB3cker v.2 © 2008-2014 @ PPK