Бэтмен: Убийственная шутка / Batman: The Killing Joke (2016) BDRip-AVC | Solod - скачать торрент

 Статистика раздачи 
Размер: 1.42 ГБ   |  Зарегистрирован: 07 сен 2016, 17:14   |   .torrent скачан: 144 раз
Сидеров: 13  [ 0 байт/сек ]     Личеров: 2  [ 0 байт/сек ]  
  

Сообщение dieug » 07 сен 2016, 17:15


Название: Бэтмен: Убийственная шутка
В оригинале: Batman: The Killing Joke

Год: 2016
Режиссёр: Сэм Лью
Жанр: мультфильм, боевик, триллер, драма, криминал
Роли озвучивали: Кевин Конрой, Марк Хэмилл, Тара Стронг, Рэй Уайз, Джон Ди Маджио, Робин Аткин Даунс, Брайан Джордж, Джон Пол Карлиак, Эндрю Кисино, Нолан Норт

Описание:
Бэтмен появляется в клинике Аркхем, где выясняет, что Джокер сумел бежать из-под охраны. Этот опасный пациент был под наблюдением, но теперь его функции развлекать лечебницу переданы другому. Тот в роли клоуна, не отдающего себе отчета в последствиях происходящего. Джокер на свободе и намерен показать окружающим, на что способен. Ошибались те, кто считал его умалишенным. Мир вокруг сошел с ума, а у Джокера есть свои планы и способы их реализации. Парк аттракционов, давно не функционирующий, куплен беглецом из клиники за копейки. Это первый шаг на пути к мечте. Джеймс Гордон становится помощником Джокера. Почему именно он? Гордон олицетворяет собой честь и мораль в Готэме, прогнившем насквозь…

Выпущено: США
Продолжительность: 01:16:39
Перевод: Любительский одноголосый закадровый [L1] Solod

Формат: MKV
Качество: BDRip-AVC
Видео: 1024x576 (16:9), 23.976 fps, AVC(H264), High@L4.1, 2200 kbps, 0.156 bpp
Аудио: 48.0 kHz, AC3 Dolby Digital, 3/2 (L,C,R,l,r) + LFE ch, 448 kbps
Субтитры: русские, английские
Доп. информация: Один раз бэтгёрл сняла кофту, обнажив лифчик и один раз сказала:"потрахались"
даже и не знаю, с чего такой рейтинг.
Реклама: Отсутствует


General
Unique ID : 31142337333535752710789841542298026193 (0x176DCBC6B6CF205F795A47E261DD40D1)
Complete name : batman.the.killing.joke.2016.1024.solod.rus.5.1.mkv
Format : Matroska
Format version : Version 4 / Version 2
File size : 1.42 GiB
Duration : 1 h 16 min
Overall bit rate : 2 650 kb/s
Movie name : Batman The Killing Joke 2016
Released date : 2016
Encoded date : UTC 2016-08-30 00:25:56 / UTC 2016-07-24T21:14:16Z
Writing application : mkvmerge v9.4.0 ('Knurl') 64bit
Writing library : libebml v1.3.4 + libmatroska v1.4.5 / Lavf55.12.0
GENRE : animation

Video
ID : 1
Format : AVC
Format/Info : Advanced Video Codec
Format profile : High@L4.1
Format settings, CABAC : Yes
Format settings, ReFrames : 10 frames
Codec ID : V_MPEG4/ISO/AVC
Duration : 1 h 16 min
Bit rate : 2 200 kb/s
Width : 1 024 pixels
Height : 576 pixels
Display aspect ratio : 16:9
Frame rate mode : Constant
Frame rate : 23.976 (24000/1001) FPS
Color space : YUV
Chroma subsampling : 4:2:0
Bit depth : 8 bits
Scan type : Progressive
Bits/(Pixel*Frame) : 0.156
Stream size : 1.15 GiB (81%)
Writing library : x264 core 148
Encoding settings : cabac=1 / ref=10 / deblock=1:-2:-2 / analyse=0x3:0x113 / me=umh / subme=11 / psy=1 / psy_rd=1,00:0,00 / mixed_ref=1 / me_range=24 / chroma_me=1 / trellis=2 / 8x8dct=1 / cqm=0 / deadzone=21,11 / fast_pskip=1 / chroma_qp_offset=-2 / threads=6 / lookahead_threads=1 / sliced_threads=0 / nr=0 / decimate=1 / interlaced=0 / bluray_compat=0 / constrained_intra=0 / bframes=11 / b_pyramid=2 / b_adapt=1 / b_bias=0 / direct=1 / weightb=1 / open_gop=0 / weightp=2 / keyint=240 / keyint_min=24 / scenecut=40 / intra_refresh=0 / rc_lookahead=40 / rc=2pass / mbtree=1 / bitrate=2200 / ratetol=1,0 / qcomp=0,60 / qpmin=0 / qpmax=69 / qpstep=4 / cplxblur=20,0 / qblur=0,5 / vbv_maxrate=62500 / vbv_bufsize=78125 / nal_hrd=none / filler=0 / ip_ratio=1,40 / aq=1:1,00
Default : Yes
Forced : No
Color range : Limited
Color primaries : BT.709
Transfer characteristics : BT.709
Matrix coefficients : BT.709
Statistics Tags Issue : mkvmerge v9.4.0 ('Knurl') 64bit 2016-08-30 00:25:56 / mkvmerge v9.4.0 ('Knurl') 64bit 2016-08-30 00:25:56 / UTC 2016-07-24T21:14:16Z
FromStats_BitRate : 2199839
FromStats_Duration : 01:16:39.262000000
FromStats_FrameCount : 110272
FromStats_StreamSize : 1264704897

Audio
ID : 2
Format : AC-3
Format/Info : Audio Coding 3
Mode extension : CM (complete main)
Format settings, Endianness : Big
Codec ID : A_AC3
Duration : 1 h 16 min
Bit rate mode : Constant
Bit rate : 448 kb/s
Channel(s) : 6 channels
Channel positions : Front: L C R, Side: L R, LFE
Sampling rate : 48.0 kHz
Frame rate : 31.250 FPS (1536 spf)
Compression mode : Lossy
Delay relative to video : -83 ms
Stream size : 246 MiB (17%)
Title : vo solod
Language : Russian
Default : Yes
Forced : No
Statistics Tags Issue : mkvmerge v9.4.0 ('Knurl') 64bit 2016-08-30 00:25:56 / mkvmerge v9.4.0 ('Knurl') 64bit 2016-08-30 00:25:56 / UTC 2016-07-24T21:14:16Z
FromStats_BitRate : 448000
FromStats_Duration : 01:16:39.328000000
FromStats_FrameCount : 143729
FromStats_StreamSize : 257562368

Text #1
ID : 3
Format : UTF-8
Codec ID : S_TEXT/UTF8
Codec ID/Info : UTF-8 Plain Text
Title : rus full
Language : Russian
Default : No
Forced : No
Statistics Tags Issue : mkvmerge v9.4.0 ('Knurl') 64bit 2016-08-30 00:25:56 / mkvmerge v9.4.0 ('Knurl') 64bit 2016-08-30 00:25:56 / UTC 2016-07-24T21:14:16Z
FromStats_BitRate : 100
FromStats_Duration : 01:13:35.551000000
FromStats_FrameCount : 994
FromStats_StreamSize : 55399

Text #2
ID : 4
Format : UTF-8
Codec ID : S_TEXT/UTF8
Codec ID/Info : UTF-8 Plain Text
Title : eng full
Language : English
Default : No
Forced : No
Statistics Tags Issue : mkvmerge v9.4.0 ('Knurl') 64bit 2016-08-30 00:25:56 / mkvmerge v9.4.0 ('Knurl') 64bit 2016-08-30 00:25:56 / UTC 2016-07-24T21:14:16Z
FromStats_BitRate : 59
FromStats_Duration : 01:16:19.407000000
FromStats_FrameCount : 1000
FromStats_StreamSize : 33850

Menu
00:00:00.000 : :00:00:00.000
00:10:06.856 : :00:10:06.731
00:20:30.771 : :00:20:30.646
00:30:08.390 : :00:30:08.265
00:41:23.773 : :00:41:23.648
00:51:27.459 : :00:51:27.334
01:02:21.654 : :01:02:21.529
01:11:52.057 : :01:11:51.891

   
Торрент: Зарегистрирован [07 сен 2016, 17:14] Мультфильмы Скачать торрент
Скачать торрент
[ Размер 29.67 КБ / Просмотров 4 ]
Статус:
Проверен
 
.torrent скачан: 144 раз
Размер: 1.42 ГБ (1 523 436 114 байт)
   
Аватара пользователя
dieug
Модератор
Модератор
 
Раздал: 6.19 ТБ
Скачал: 391.29 МБ
Ратио: 16940.621
Сообщения: 56
Зарегистрирован: 27 мар 2016, 23:35


  • Похожие торренты
    Ответы
    Просмотры
    Последнее сообщение

Вернуться в Мультфильмы

Кто сейчас на конференции

Сейчас этот форум просматривают: нет зарегистрированных пользователей и гости: 1

cron
Ресурс не предоставляет электронные версии произведений, а занимается лишь коллекционированием и каталогизацией ссылок, присылаемых и публикуемых на форуме нашими читателями. Если вы являетесь правообладателем какого-либо представленного материала и не желаете чтобы ссылка на него находилась в нашем каталоге, свяжитесь с нами и мы незамедлительно удалим её. Файлы для обмена на трекере предоставлены пользователями сайта, и администрация не несёт ответственности за их содержание. Просьба не заливать файлы, защищенные авторскими правами, а также файлы нелегального содержания!
cron
ppkBB3cker v.2 © 2008-2014 @ PPK