Ледниковый период: Столкновение неизбежно / Ice Age: Collision Course (2016) BDRip 1080p | Лицензия - скачать торрент

 Статистика раздачи 
Размер: 7.79 ГБ   |  Зарегистрирован: 02 ноя 2016, 22:52   |   .torrent скачан: 1 раз
Сидеров: 0  [ 0 байт/сек ]     Личеров: 0  [ 0 байт/сек ]  
  

Сообщение Бубочка » 02 окт 2016, 11:20


Название: Ледниковый период: Столкновение неизбежно
Оригинальное название: Ice Age: Collision Course
Год выхода: 2016
Жанр: мультфильм, фантастика, комедия, приключения, семейный
Режиссер: Майк Тёрмайер, Гален Т. Чу
В ролях: Рэй Романо, Джон Легуизамо, Дэнис Лири, Куин Латифа, Шонн Уильям Скотт, Саймон Пегг, Дженнифер Лопез, Нил Тайсон, Джесси Тайлер Фергюсон

Описание: Отчаянная погоня за неуловимым жёлудем катапультирует Скрата прямо в космос, где он случайно запускает целую серию космических событий. Именно они изменят весь мир Ледникового периода и станут реальной угрозой для него. Чтобы спастись, Сид, Мэнни, Диего и остальные звери должны покинуть свои дома, отправиться в забавное и захватывающее приключение в экзотические новые земли и встретиться со множеством красочных новых персонажей...



Страна: США, 20th Century Fox Animation, Blue Sky Studios
Продолжительность: 01:35:05
Перевод: Профессиональный (полное дублирование) | Лицензия

Файл
Кодек: MPEG-4 AVC
Качество: BDRip 1080p
Видео: 1920x800, 9064 Kbit/s, 23.976 fps
Звук:
Аудио #01: 48 kHz, DTS, 5.1, 768 Kbps | Дублированный | Лицензия |
Аудио #02: 48 kHz, AC3, 5.1, 448 Kbps | Дублированный | Лицензия |
Аудио #03: 48 kHz, DTS, 5.1, 1510 kbps | Оригинал |
Субтитры: Русские (full, forced), английские
General
Unique ID : 255049363683859789345127462244123545313 (0xBFE0B87E964B125789829E0D03260EE1)
Complete name : VideoIce.Age.Collision.Course.2016.DD.BDRip.1080p.mkv
Format : Matroska
Format version : Version 4 / Version 2
File size : 7.79 GiB
Duration : 1 h 34 min
Overall bit rate : 11.8 Mb/s
Movie name : ***селезень***
Encoded date : UTC 2016-11-02 17:51:38
Writing application : mkvmerge v8.3.0 ('Over the Horizon') 64bit
Writing library : libebml v1.3.1 + libmatroska v1.4.2

Video
ID : 1
Format : AVC
Format/Info : Advanced Video Codec
Format profile : High@L4.1
Format settings, CABAC : Yes
Format settings, ReFrames : 5 frames
Codec ID : V_MPEG4/ISO/AVC
Duration : 1 h 34 min
Bit rate : 9 064 kb/s
Width : 1 920 pixels
Height : 800 pixels
Display aspect ratio : 2.40:1
Frame rate mode : Constant
Frame rate : 23.976 (24000/1001) FPS
Color space : YUV
Chroma subsampling : 4:2:0
Bit depth : 8 bits
Scan type : Progressive
Bits/(Pixel*Frame) : 0.246
Stream size : 5.98 GiB (77%)
Title : ***селезень***
Writing library : x264 core 146 r2538 121396c
Encoding settings : cabac=1 / ref=5 / deblock=1:-3:-3 / analyse=0x3:0x133 / me=umh / subme=11 / psy=1 / psy_rd=1.00:0.00 / mixed_ref=1 / me_range=32 / chroma_me=1 / trellis=2 / 8x8dct=1 / cqm=0 / deadzone=21,11 / fast_pskip=0 / chroma_qp_offset=-2 / threads=12 / lookahead_threads=1 / sliced_threads=0 / nr=0 / decimate=0 / interlaced=0 / bluray_compat=0 / constrained_intra=0 / bframes=8 / b_pyramid=2 / b_adapt=2 / b_bias=0 / direct=3 / weightb=1 / open_gop=0 / weightp=2 / keyint=240 / keyint_min=2 / scenecut=40 / intra_refresh=0 / rc_lookahead=50 / rc=2pass / mbtree=0 / bitrate=9064 / ratetol=1.0 / qcomp=0.70 / qpmin=0 / qpmax=69 / qpstep=4 / cplxblur=20.0 / qblur=0.5 / vbv_maxrate=50000 / vbv_bufsize=62500 / nal_hrd=none / filler=0 / ip_ratio=1.20 / pb_ratio=1.20 / aq=3:0.80
Language : English
Default : Yes
Forced : No

Audio #1
ID : 2
Format : DTS
Format/Info : Digital Theater Systems
Mode : 16
Format settings, Endianness : Big
Codec ID : A_DTS
Duration : 1 h 34 min
Bit rate mode : Constant
Bit rate : 768 kb/s
Channel(s) : 6 channels
Channel positions : Front: L C R, Side: L R, LFE
Sampling rate : 48.0 kHz
Frame rate : 93.750 FPS (512 spf)
Bit depth : 24 bits
Compression mode : Lossy
Stream size : 519 MiB (7%)
Title : Dub-DTS [License]
Language : Russian
Default : Yes
Forced : No

Audio #2
ID : 3
Format : AC-3
Format/Info : Audio Coding 3
Mode extension : CM (complete main)
Format settings, Endianness : Big
Codec ID : A_AC3
Duration : 1 h 34 min
Bit rate mode : Constant
Bit rate : 448 kb/s
Channel(s) : 6 channels
Channel positions : Front: L C R, Side: L R, LFE
Sampling rate : 48.0 kHz
Frame rate : 31.250 FPS (1536 spf)
Bit depth : 16 bits
Compression mode : Lossy
Stream size : 303 MiB (4%)
Title : Dub-AC3 [License]
Language : Russian
Default : No
Forced : No

Audio #3
ID : 4
Format : DTS
Format/Info : Digital Theater Systems
Format profile : ES Matrix / Core
Mode : 16
Format settings, Endianness : Big
Codec ID : A_DTS
Duration : 1 h 34 min
Bit rate mode : Constant
Bit rate : 1 509 kb/s
Channel(s) : 7 channels / 6 channels
Channel positions : Front: L C R, Side: L R, Back: C, LFE / Front: L C R, Side: L R, LFE
Sampling rate : 48.0 kHz
Frame rate : 93.750 FPS (512 spf)
Bit depth : 24 bits
Compression mode : Lossy
Stream size : 1 020 MiB (13%)
Title : Original
Language : English
Default : No
Forced : No

Text #1
ID : 5
Format : UTF-8
Codec ID : S_TEXT/UTF8
Codec ID/Info : UTF-8 Plain Text
Duration : 24 min 51 s
Bit rate : 0 b/s
Count of elements : 2
Stream size : 109 Bytes (0%)
Title : Forced [iTunes]
Language : Russian
Default : Yes
Forced : No

Text #2
ID : 6
Format : UTF-8
Codec ID : S_TEXT/UTF8
Codec ID/Info : UTF-8 Plain Text
Duration : 1 h 23 min
Bit rate : 99 b/s
Count of elements : 1221
Stream size : 61.1 KiB (0%)
Title : Full [iTunes]
Language : Russian
Default : No
Forced : No

Text #3
ID : 7
Format : UTF-8
Codec ID : S_TEXT/UTF8
Codec ID/Info : UTF-8 Plain Text
Duration : 1 h 23 min
Bit rate : 60 b/s
Count of elements : 1221
Stream size : 36.9 KiB (0%)
Title : Full
Language : English
Default : No
Forced : No

Menu
00:00:00.000 : en:1
00:03:07.103 : en:2
00:05:22.321 : en:3
00:09:04.084 : en:4
00:13:20.298 : en:5
00:18:03.748 : en:6
00:20:48.579 : en:7
00:23:08.302 : en:8
00:27:27.894 : en:9
00:30:13.976 : en:10
00:32:52.342 : en:11
00:36:11.582 : en:12
00:39:31.448 : en:13
00:42:56.694 : en:14
00:47:33.011 : en:15
00:51:09.727 : en:16
00:55:48.756 : en:17
01:01:07.449 : en:18
01:05:04.394 : en:19
01:09:37.291 : en:20
01:14:34.880 : en:21
01:17:39.522 : en:22
01:21:41.055 : en:23
01:24:44.488 : en:24
   
Торрент: Зарегистрирован [02 ноя 2016, 22:52] Мультфильмы Скачать торрент
Скачать торрент
[ Размер 39.7 КБ / Просмотров 5 ]
Статус:
Проверен
 
.torrent скачан: 1 раз
Размер: 7.79 ГБ (8 359 571 927 байт)
   
Аватара пользователя
Бубочка
Администратор
Администратор
 
Раздал: 7.29 ТБ
Скачал: 419.06 ГБ
Ратио: 150.817
Сообщения: 4932
Зарегистрирован: 13 дек 2013, 01:15


  • Похожие торренты
    Ответы
    Просмотры
    Последнее сообщение

Вернуться в Мультфильмы

Кто сейчас на конференции

Сейчас этот форум просматривают: нет зарегистрированных пользователей и гости: 1

cron
Ресурс не предоставляет электронные версии произведений, а занимается лишь коллекционированием и каталогизацией ссылок, присылаемых и публикуемых на форуме нашими читателями. Если вы являетесь правообладателем какого-либо представленного материала и не желаете чтобы ссылка на него находилась в нашем каталоге, свяжитесь с нами и мы незамедлительно удалим её. Файлы для обмена на трекере предоставлены пользователями сайта, и администрация не несёт ответственности за их содержание. Просьба не заливать файлы, защищенные авторскими правами, а также файлы нелегального содержания!
cron
ppkBB3cker v.2 © 2008-2014 @ PPK