Книга джунглей / The Jungle Book (2016) BDRip 1080p | Лицензия - скачать торрент

 Статистика раздачи 
Размер: 11.82 ГБ   |  Зарегистрирован: 27 авг 2016, 23:04   |   .torrent скачан: 568 раз
Сидеров: 549  [ 0 байт/сек ]     Личеров: 520  [ 0 байт/сек ]  
  

Сообщение Бубочка » 06 авг 2016, 22:48


Производство: США, Fairview Entertainment, Moving Picture Company (MPC), Walt Disney Pictures
Жанр: Фэнтези, Драма, Приключения, Семейный
Режиссер: Джон Фавро
Продюсер: Джон Фавро, Бригхэм Тейлор, Молли Аллен
Актеры: Скарлетт Йоханссон, Идрис Эльба, Билл Мюррей, Бен Кингсли, Кристофер Уокен, Джанкарло Эспозито, Лупита Нионго Эмджей, Энтони, Нил Сетхи, Брэндон Хеншель

Описание:
Непримиримая борьба с опасным и внушающим страх тигром Шерханом вынуждает Маугли покинуть волчью стаю и отправиться в захватывающее путешествие. На пути мальчика ждут удивительные открытия и запоминающиеся встречи с пантерой Багирой, медведем Балу, питоном Каа и другими обитателями дремучих джунглей.



Продолжительность: 01:46:10
Перевод: Дублированный

Вид субтитров: Вшитые отключаемые
Язык субтитров: Русские, английские
Качество видео: BDRip 1080p
Видео: MPEG-4 AVC, 11657 Кбит/с, 1920x1040, 23.976 кадр/с
Аудио Русский, украинский (AC3, 6 ch, 640 Кбит/с), украинский, английский (DTS, 6 ch, 1509 Кбит/с)

x264 [info]: frame I:1052 Avg QP:15.46 size:322132
x264 [info]: frame P:41478 Avg QP:18.78 size:109295
x264 [info]: frame B:110191 Avg QP:19.86 size: 40020
x264 [info]: consecutive B-frames: 5.5% 4.5% 16.0% 25.7% 13.4% 31.6% 2.0% 0.3% 0.2% 0.1% 0.7%
x264 [info]: mb I I16..4: 10.5% 69.1% 20.5%
x264 [info]: mb P I16..4: 1.4% 21.2% 1.5% P16..4: 28.3% 30.9% 10.7% 2.0% 0.2% skip: 3.8%
x264 [info]: mb B I16..4: 0.3% 3.0% 0.2% B16..8: 33.0% 20.2% 3.1% direct: 9.5% skip:30.8% L0:39.2% L1:42.8% BI:18.0%
x264 [info]: 8x8 transform intra:86.1% inter:53.4%
x264 [info]: direct mvs spatial:96.9% temporal:3.1%
x264 [info]: coded y,uvDC,uvAC intra: 91.1% 86.2% 65.8% inter: 33.6% 33.6% 16.7%
x264 [info]: i16 v,h,dc,p: 24% 12% 11% 52%
x264 [info]: i8 v,h,dc,ddl,ddr,vr,hd,vl,hu: 8% 9% 10% 9% 12% 12% 12% 12% 15%
x264 [info]: i4 v,h,dc,ddl,ddr,vr,hd,vl,hu: 11% 9% 12% 7% 13% 12% 13% 9% 13%
x264 [info]: i8c dc,h,v,p: 46% 23% 16% 14%
x264 [info]: Weighted P-Frames: Y:2.1% UV:1.4%
x264 [info]: ref P L0: 54.2% 12.3% 23.0% 8.3% 2.1% 0.0%
x264 [info]: ref B L0: 86.0% 11.5% 2.5%
x264 [info]: ref B L1: 93.9% 6.1%
x264 [info]: kb/s:11657.75


Инфо-файл

Общее
Уникальный идентификатор : 247119597993242502207494188766054647574 (0xB9E980DC5534481298CFF596BE490716)
Полное имя : D:ЗагрузкиThe.Jungle.Book.2016.x264.BDRip.(1080p).mkv
Формат : Matroska
Версия формата : Version 2
Размер файла : 11,8 Гбайт
Продолжительность : 1 ч. 46 м.
Общий поток : 15,9 Мбит/сек
Название фильма : Книга джунглей.2016.Rip by: ollan
Дата кодирования : UTC 2016-08-27 14:05:04
Программа кодирования : mkvmerge v5.6.0 ('Kenya Kane') built on May 27 2012 16:44:04
Библиотека кодирования : libebml v1.2.3 + libmatroska v1.3.0
Обложка : Yes
Attachments : Cover - The.Jungle.Book.png

Видео
Идентификатор : 1
Формат : AVC
Формат/Информация : Advanced Video Codec
Профиль формата : High@L4.1
Параметр CABAC формата : Да
Параметр ReFrames формата : 4 кадра
Идентификатор кодека : V_MPEG4/ISO/AVC
Продолжительность : 1 ч. 46 м.
Битрейт : 11,7 Мбит/сек
Ширина : 1920 пикселей
Высота : 1040 пикселей
Соотношение сторон : 1,85:1
Режим частоты кадров : Постоянный
Частота кадров : 23,976 (24000/1001) кадра/сек
Цветовое пространство : YUV
Субдискретизация насыщенности : 4:2:0
Битовая глубина : 8 бит
Тип развёртки : Прогрессивная
Бит/(Пиксели*Кадры) : 0.243
Размер потока : 8,40 Гбайт (71%)
Библиотека кодирования : x264 core 146 r2538 121396c
Настройки программы : cabac=1 / ref=4 / deblock=1:-3:-3 / analyse=0x3:0x133 / me=umh / subme=11 / psy=1 / psy_rd=1.03:0.07 / mixed_ref=1 / me_range=48 / chroma_me=1 / trellis=2 / 8x8dct=1 / cqm=0 / deadzone=21,11 / fast_pskip=0 / chroma_qp_offset=-3 / threads=12 / lookahead_threads=3 / sliced_threads=0 / nr=0 / decimate=0 / interlaced=0 / bluray_compat=0 / constrained_intra=0 / bframes=10 / b_pyramid=2 / b_adapt=2 / b_bias=0 / direct=3 / weightb=1 / open_gop=0 / weightp=2 / keyint=240 / keyint_min=23 / scenecut=40 / intra_refresh=0 / rc_lookahead=40 / rc=2pass / mbtree=0 / bitrate=11657 / ratetol=1.0 / qcomp=0.60 / qpmin=0 / qpmax=69 / qpstep=4 / cplxblur=20.0 / qblur=0.5 / vbv_maxrate=50000 / vbv_bufsize=62500 / nal_hrd=none / filler=0 / ip_ratio=1.40 / pb_ratio=1.30 / aq=1:1.00
Язык : English
Default : Да
Forced : Нет

Аудио #1
Идентификатор : 2
Формат : AC-3
Формат/Информация : Audio Coding 3
Расширение режима : CM (complete main)
Параметр Endianness формата : Big
Идентификатор кодека : A_AC3
Продолжительность : 1 ч. 46 м.
Вид битрейта : Постоянный
Битрейт : 640 Кбит/сек
Каналы : 6 каналов
Расположение каналов : Front: L C R, Side: L R, LFE
Частота : 48,0 КГц
Частота кадров : 31,250 кадров/сек (1536 spf)
Метод сжатия : С потерями
Размер потока : 486 Мбайт (4%)
Заголовок : Дублированный (Лицензия)
Язык : Russian
Default : Да
Forced : Нет

Аудио #2
Идентификатор : 3
Формат : AC-3
Формат/Информация : Audio Coding 3
Расширение режима : CM (complete main)
Параметр Endianness формата : Big
Идентификатор кодека : A_AC3
Продолжительность : 1 ч. 46 м.
Вид битрейта : Постоянный
Битрейт : 640 Кбит/сек
Каналы : 6 каналов
Расположение каналов : Front: L C R, Side: L R, LFE
Частота : 48,0 КГц
Частота кадров : 31,250 кадров/сек (1536 spf)
Метод сжатия : С потерями
Размер потока : 486 Мбайт (4%)
Заголовок : Дублированный (Buena Vista)
Язык : Ukrainian
Default : Нет
Forced : Нет

Аудио #3
Идентификатор : 4
Формат : DTS
Формат/Информация : Digital Theater Systems
Режим : 16
Параметр Endianness формата : Big
Идентификатор кодека : A_DTS
Продолжительность : 1 ч. 46 м.
Вид битрейта : Постоянный
Битрейт : 1509 Кбит/сек
Каналы : 6 каналов
Расположение каналов : Front: L C R, Side: L R, LFE
Частота : 48,0 КГц
Частота кадров : 93,750 кадра/сек (512 spf)
Битовая глубина : 24 бит
Метод сжатия : С потерями
Размер потока : 1,12 Гбайт (9%)
Заголовок : Дублированный (Buena Vista)
Язык : Ukrainian
Default : Нет
Forced : Нет

Аудио #4
Идентификатор : 5
Формат : DTS
Формат/Информация : Digital Theater Systems
Режим : 16
Параметр Endianness формата : Big
Идентификатор кодека : A_DTS
Продолжительность : 1 ч. 46 м.
Вид битрейта : Постоянный
Битрейт : 1509 Кбит/сек
Каналы : 6 каналов
Расположение каналов : Front: L C R, Side: L R, LFE
Частота : 48,0 КГц
Частота кадров : 93,750 кадра/сек (512 spf)
Битовая глубина : 24 бит
Метод сжатия : С потерями
Размер потока : 1,12 Гбайт (9%)
Язык : English
Default : Нет
Forced : Нет

Текст #1
Идентификатор : 6
Формат : UTF-8
Идентификатор кодека : S_TEXT/UTF8
Идентификатор кодека/Информация : UTF-8 Plain Text
Заголовок : Forced
Язык : Russian
Default : Да
Forced : Нет

Текст #2
Идентификатор : 7
Формат : UTF-8
Идентификатор кодека : S_TEXT/UTF8
Идентификатор кодека/Информация : UTF-8 Plain Text
Заголовок : Full
Язык : Russian
Default : Нет
Forced : Нет

Текст #3
Идентификатор : 8
Формат : UTF-8
Идентификатор кодека : S_TEXT/UTF8
Идентификатор кодека/Информация : UTF-8 Plain Text
Заголовок : Full
Язык : English
Default : Нет
Forced : Нет

Меню
00:00:00.000 : en:Chapter 01
00:00:48.213 : en:Chapter 02
00:05:15.314 : en:Chapter 03
00:09:02.457 : en:Chapter 04
00:12:42.177 : en:Chapter 05
00:16:34.451 : en:Chapter 06
00:21:20.028 : en:Chapter 07
00:27:15.133 : en:Chapter 08
00:35:04.143 : en:Chapter 09
00:43:21.724 : en:Chapter 10
00:48:05.131 : en:Chapter 11
00:53:29.246 : en:Chapter 12
00:58:03.271 : en:Chapter 13
01:05:46.442 : en:Chapter 14
01:10:35.521 : en:Chapter 15
01:17:01.323 : en:Chapter 16
01:20:48.926 : en:Chapter 17
01:24:46.537 : en:Chapter 18
01:30:32.969 : en:Chapter 19
01:35:53.204 : en:Chapter 20
01:45:54.389 : en:Chapter 21
   
Торрент: Зарегистрирован [27 авг 2016, 23:04] Детское / Семейное кино Скачать торрент
Скачать торрент
[ Размер 30.33 КБ / Просмотров 15 ]
Статус:
Проверен
 
.torrent скачан: 568 раз
Размер: 11.82 ГБ (12 696 922 917 байт)
   
Аватара пользователя
Бубочка
Администратор
Администратор
 
Раздал: 7.29 ТБ
Скачал: 419.06 ГБ
Ратио: 150.817
Сообщения: 4928
Зарегистрирован: 13 дек 2013, 01:15


  • Похожие торренты
    Ответы
    Просмотры
    Последнее сообщение

Вернуться в Детское / Семейное кино

Кто сейчас на конференции

Сейчас этот форум просматривают: нет зарегистрированных пользователей и гости: 1

cron
Ресурс не предоставляет электронные версии произведений, а занимается лишь коллекционированием и каталогизацией ссылок, присылаемых и публикуемых на форуме нашими читателями. Если вы являетесь правообладателем какого-либо представленного материала и не желаете чтобы ссылка на него находилась в нашем каталоге, свяжитесь с нами и мы незамедлительно удалим её. Файлы для обмена на трекере предоставлены пользователями сайта, и администрация не несёт ответственности за их содержание. Просьба не заливать файлы, защищенные авторскими правами, а также файлы нелегального содержания!
cron
ppkBB3cker v.2 © 2008-2014 @ PPK