Из машины / Ex Machina (2015) BDRip 720p | Лицензия - скачать торрент

 Статистика раздачи 
Размер: 5.86 ГБ   |  Зарегистрирован: 17 май 2015, 19:59   |   .torrent скачан: 30583 раз
Сидеров: 447  [ 0 байт/сек ]     Личеров: 7  [ 0 байт/сек ]  
  

Сообщение Бубочка » 17 май 2015, 19:59


Информация о фильме
Название: Из машины
Оригинальное название: Ex Machina
Год выпуска: 2015
Жанр: Фантастика, драма
Режиссер: Алекс Гарленд
В ролях: Домналл Глисон, Кори Джонсон, Оскар Айзек, Алисия Викандер, Соноя Мизуно, Симара А. Темплмен, Тиффани Писани, Элина Алминас

О фильме: В центре сюжета - молодой человек, которого нанимает миллиардер, сделавший состояние на высокотехнологичных разработках. Задача работника - провести неделю в удаленном месте, тестируя женщину-робота с искусственным интеллектом.



Страна: Великобритания
Студия: DNA Films, Film4
Продолжительность: 01:48:01
Перевод: Дублированный (Студия Пифагор)

Файл
Качество: BDRip 720p
Видео: MPEG-4 AVC, 7000 Кбит/с, 1280x536, 23.976 кадр/с
Звук:
Русский - (AC3, 6 ch, 384 Кбит/с)
Английский - (AC3, 6 ch, 384 Кбит/с)
Субтитры: Русские, украинские, английские

Семпл
General
Format : Matroska
Format version : Version 2
File size : 5.86 GiB
Duration : 1h 48mn
Overall bit rate : 7 761 Kbps
Encoded date : UTC 2015-05-16 15:12:38
Writing application : mkvmerge v5.5.0 ('Healer') built on Apr 6 2012 21:43:24
Writing library : libebml v1.2.3 + libmatroska v1.3.0

Video
ID : 1
Format : AVC
Format/Info : Advanced Video Codec
Format profile : High@L4.1
Format settings, CABAC : Yes
Format settings, ReFrames : 12 frames
Codec ID : V_MPEG4/ISO/AVC
Duration : 1h 48mn
Bit rate : 7 000 Kbps
Width : 1 280 pixels
Height : 536 pixels
Display aspect ratio : 2.40:1
Frame rate mode : Constant
Frame rate : 23.976 fps
Color space : YUV
Chroma subsampling : 4:2:0
Bit depth : 8 bits
Scan type : Progressive
Bits/(Pixel*Frame) : 0.426
Stream size : 5.16 GiB (88%)
Title : Ex Machina (2015)
Writing library : x264 core 142 r2409+42 04be48a tMod [8-bit@all X86_64]
Encoding settings : cabac=1 / ref=12 / deblock=1:-3:-3 / analyse=0x3:0x133 / me=umh / subme=11 / psy=1 / fade_compensate=0.00 / psy_rd=1.00:0.15 / mixed_ref=1 / me_range=24 / chroma_me=1 / trellis=2 / 8x8dct=1 / cqm=0 / deadzone=21,11 / fast_pskip=1 / chroma_qp_offset=-3 / threads=12 / lookahead_threads=2 / sliced_threads=0 / nr=0 / decimate=1 / interlaced=0 / bluray_compat=0 / constrained_intra=0 / fgo=0 / bframes=8 / b_pyramid=2 / b_adapt=2 / b_bias=0 / direct=3 / weightb=1 / open_gop=0 / weightp=2 / keyint=240 / keyint_min=23 / scenecut=40 / intra_refresh=0 / rc_lookahead=60 / rc=2pass / mbtree=1 / bitrate=7000 / ratetol=1.0 / qcomp=0.60 / qpmin=10:10:10 / qpmax=51:51:51 / qpstep=4 / cplxblur=20.0 / qblur=0.5 / vbv_maxrate=40000 / vbv_bufsize=30000 / nal_hrd=none / filler=0 / ip_ratio=1.40 / aq=1:1.00 / aq-sensitivity=10.00 / aq-factor=1.00:1.00:1.00 / aq2=0 / aq3=0
Language : English
Default : Yes
Forced : No

Audio #1
ID : 2
Format : AC-3
Format/Info : Audio Coding 3
Mode extension : CM (complete main)
Format settings, Endianness : Big
Codec ID : A_AC3
Duration : 1h 48mn
Bit rate mode : Constant
Bit rate : 384 Kbps
Channel count : 6 channels
Channel positions : Front: L C R, Side: L R, LFE
Sampling rate : 48.0 KHz
Bit depth : 16 bits
Compression mode : Lossy
Stream size : 297 MiB (5%)
Title : Russian
Language : Russian
Default : Yes
Forced : No

Audio #2
ID : 3
Format : AC-3
Format/Info : Audio Coding 3
Mode extension : CM (complete main)
Format settings, Endianness : Big
Codec ID : A_AC3
Duration : 1h 48mn
Bit rate mode : Constant
Bit rate : 384 Kbps
Channel count : 6 channels
Channel positions : Front: L C R, Side: L R, LFE
Sampling rate : 48.0 KHz
Bit depth : 16 bits
Compression mode : Lossy
Stream size : 297 MiB (5%)
Title : English
Language : English
Default : No
Forced : No

Text #1
ID : 4
Format : UTF-8
Codec ID : S_TEXT/UTF8
Codec ID/Info : UTF-8 Plain Text
Title : Russian
Language : Russian
Default : No
Forced : No

Text #2
ID : 5
Format : UTF-8
Codec ID : S_TEXT/UTF8
Codec ID/Info : UTF-8 Plain Text
Title : Ukrainian
Language : Ukrainian
Default : No
Forced : No

Text #3
ID : 6
Format : UTF-8
Codec ID : S_TEXT/UTF8
Codec ID/Info : UTF-8 Plain Text
Title : English
Language : English
Default : No
Forced : No

Menu
00:00:00.000 : en:Chapter 01
00:04:34.941 : en:Chapter 02
00:11:16.634 : en:Chapter 03
00:15:08.157 : en:Chapter 04
00:23:38.750 : en:Chapter 05
00:31:57.999 : en:Chapter 06
00:36:05.162 : en:Chapter 07
00:40:26.757 : en:Chapter 08
00:45:56.378 : en:Chapter 09
00:53:28.955 : en:Chapter 10
01:00:26.080 : en:Chapter 11
01:04:01.254 : en:Chapter 12
01:07:19.076 : en:Chapter 13
01:13:22.022 : en:Chapter 14
01:16:56.111 : en:Chapter 15
01:21:36.516 : en:Chapter 16
01:27:36.834 : en:Chapter 17
01:32:54.151 : en:Chapter 18
01:38:51.008 : en:Chapter 19
01:42:26.932 : en:Chapter 20
01:48:00.640 : en:Chapter 21
   
Торрент: Зарегистрирован [17 май 2015, 19:59] Фантастика / Фэнтези Скачать торрент
Скачать торрент
[ Размер 15.46 КБ / Просмотров 240 ]
Статус:
Проверен
 
.torrent скачан: 30583 раз
Размер: 5.86 ГБ (6 286 985 803 байт)
   
Аватара пользователя
Бубочка
Администратор
Администратор
 
Раздал: 7.29 ТБ
Скачал: 419.06 ГБ
Ратио: 150.817
Сообщения: 4930
Зарегистрирован: 13 дек 2013, 01:15


  • Похожие торренты
    Ответы
    Просмотры
    Последнее сообщение

Вернуться в Фантастика / Фэнтези

Кто сейчас на конференции

Сейчас этот форум просматривают: нет зарегистрированных пользователей и гости: 1

cron
Ресурс не предоставляет электронные версии произведений, а занимается лишь коллекционированием и каталогизацией ссылок, присылаемых и публикуемых на форуме нашими читателями. Если вы являетесь правообладателем какого-либо представленного материала и не желаете чтобы ссылка на него находилась в нашем каталоге, свяжитесь с нами и мы незамедлительно удалим её. Файлы для обмена на трекере предоставлены пользователями сайта, и администрация не несёт ответственности за их содержание. Просьба не заливать файлы, защищенные авторскими правами, а также файлы нелегального содержания!
cron
ppkBB3cker v.2 © 2008-2014 @ PPK