Арка / ARQ (2016) WEBRip 1080p - скачать торрент

 Статистика раздачи 
Размер: 4.14 ГБ   |  Зарегистрирован: 25 сен 2016, 08:44   |   .torrent скачан: 1 раз
Сидеров: 357  [ 0 байт/сек ]     Личеров: 2  [ 0 байт/сек ]  
  

Сообщение Бубочка » 25 сен 2016, 08:44


Год выхода: 2016
Производство: США
Жанр: Фантастика, триллер
Режиссер: Тони Эллиотт
Актеры: Робби Амелл, Рэйчел Тейлор, Грэй Пауэлл, Джейкоб Нийем, Шон Бенсон, Адам Батчер, Джейми Спильчук

Описание: Будущее Земли зависит от новой технологии, но на пути к выживании планеты — неожиданный поворот. Запертые в лаборатории и застрявшие во временной петле, дезориентированные герои пытаются скрыться от захватчиков в масках, одновременно сохранив новый источник энергии, который может спасти человечество.



Продолжительность: 01:27:44
Качество видео: WEBRip 1080p
Перевод: Любительский двухголосый (RecentFilms)
Субтитры: Отсутствуют

Видео: AVC, 1920x800 (2.40:1), 23.976 fps, 5 727 Kbps (0.156 bit/pixel)
Аудио #1: AC-3, 48.0 KHz, 2 ch, 256 Kbps, CBR | Русский
Аудио #2: AC-3, 48.0 KHz, 6 ch, 640 Kbps, CBR | Английский

Сэмпл
Общее
Уникальный идентификатор : 215358427179695268694680213129889791408 (0xA204863CFDBCEFC3ACEA9044C23B3DB0)
Полное имя : Арка\ARQ 2016 WEBRip 1080p-LQ.mkv
Формат : Matroska
Версия формата : Version 4 / Version 2
Размер файла : 4,14 Гбайт
Продолжительность : 1 ч. 27 м.
Общий поток : 6757 Кбит/сек
Дата кодирования : UTC 2016-09-24 20:10:15
Программа кодирования : mkvmerge v8.3.0 ('Over the Horizon') 32bit
Библиотека кодирования : libebml v1.3.1 + libmatroska v1.4.2

Видео
Идентификатор : 1
Формат : AVC
Формат/Информация : Advanced Video Codec
Профиль формата : High@L4.1
Параметр CABAC формата : Да
Параметр ReFrames формата : 4 кадра
Идентификатор кодека : V_MPEG4/ISO/AVC
Продолжительность : 1 ч. 27 м.
Битрейт : 5861 Кбит/сек
Ширина : 1920 пикселей
Высота : 800 пикселей
Соотношение сторон : 2,40:1
Режим частоты кадров : Постоянный
Частота кадров : 23,976 (24000/1001) кадра/сек
Цветовое пространство : YUV
Субдискретизация насыщенности : 4:2:0
Битовая глубина : 8 бит
Тип развёртки : Прогрессивная
Бит/(Пиксели*Кадры) : 0.159
Размер потока : 3,59 Гбайт (87%)
Библиотека кодирования : x264 core 148 r2705 3f5ed56
Настройки программы : cabac=1 / ref=4 / deblock=1:-3:-3 / analyse=0x3:0x113 / me=umh / subme=8 / psy=1 / psy_rd=1.00:0.00 / mixed_ref=1 / me_range=16 / chroma_me=1 / trellis=1 / 8x8dct=1 / cqm=0 / deadzone=21,11 / fast_pskip=1 / chroma_qp_offset=-2 / threads=15 / lookahead_threads=2 / sliced_threads=0 / nr=0 / decimate=1 / interlaced=0 / bluray_compat=0 / constrained_intra=0 / bframes=3 / b_pyramid=2 / b_adapt=2 / b_bias=0 / direct=3 / weightb=1 / open_gop=0 / weightp=2 / keyint=250 / keyint_min=23 / scenecut=40 / intra_refresh=0 / rc_lookahead=50 / rc=crf / mbtree=1 / crf=17.0 / qcomp=0.60 / qpmin=0 / qpmax=69 / qpstep=4 / ip_ratio=1.40 / aq=1:1.00
Язык : English
Default : Да
Forced : Нет
Цветовой диапазон : Limited
Коэффициенты матрицы : BT.709

Аудио #1
Идентификатор : 2
Формат : AC-3
Формат/Информация : Audio Coding 3
Расширение режима : CM (complete main)
Параметр Endianness формата : Big
Идентификатор кодека : A_AC3
Продолжительность : 1 ч. 27 м.
Вид битрейта : Постоянный
Битрейт : 256 Кбит/сек
Каналы : 2 канала
Расположение каналов : Front: L R
Частота : 48,0 КГц
Частота кадров : 31,250 кадров/сек (1536 spf)
Метод сжатия : С потерями
Размер потока : 161 Мбайт (4%)
Заголовок : Любительский двухголосый (RecentFilms)
Язык : Russian
Default : Да
Forced : Нет

Аудио #2
Идентификатор : 3
Формат : AC-3
Формат/Информация : Audio Coding 3
Расширение режима : CM (complete main)
Параметр Endianness формата : Big
Идентификатор кодека : A_AC3
Продолжительность : 1 ч. 27 м.
Вид битрейта : Постоянный
Битрейт : 640 Кбит/сек
Каналы : 6 каналов
Расположение каналов : Front: L C R, Side: L R, LFE
Частота : 48,0 КГц
Частота кадров : 31,250 кадров/сек (1536 spf)
Метод сжатия : С потерями
Размер потока : 402 Мбайт (9%)
Заголовок : Original
Язык : English
Default : Нет
Forced : Нет
   
Торрент: Зарегистрирован [25 сен 2016, 08:44] Фантастика / Фэнтези Скачать торрент
Скачать торрент
[ Размер 21.39 КБ / Просмотров 4 ]
Статус:
Проверен
 
.torrent скачан: 1 раз
Размер: 4.14 ГБ (4 446 994 801 байт)
   
Аватара пользователя
Бубочка
Администратор
Администратор
 
Раздал: 7.29 ТБ
Скачал: 419.06 ГБ
Ратио: 150.817
Сообщения: 4930
Зарегистрирован: 13 дек 2013, 01:15


  • Похожие торренты
    Ответы
    Просмотры
    Последнее сообщение

Вернуться в Фантастика / Фэнтези

Кто сейчас на конференции

Сейчас этот форум просматривают: нет зарегистрированных пользователей и гости: 1

cron
Ресурс не предоставляет электронные версии произведений, а занимается лишь коллекционированием и каталогизацией ссылок, присылаемых и публикуемых на форуме нашими читателями. Если вы являетесь правообладателем какого-либо представленного материала и не желаете чтобы ссылка на него находилась в нашем каталоге, свяжитесь с нами и мы незамедлительно удалим её. Файлы для обмена на трекере предоставлены пользователями сайта, и администрация не несёт ответственности за их содержание. Просьба не заливать файлы, защищенные авторскими правами, а также файлы нелегального содержания!
cron
ppkBB3cker v.2 © 2008-2014 @ PPK