Охотники за привидениями / Ghostbusters (2016) BDRip 1080p | Theatrical Cut | Лицензия - скачать торрент

 Статистика раздачи 
Размер: 8.15 ГБ   |  Зарегистрирован: 31 окт 2016, 20:46   |   .torrent скачан: 79 раз
Сидеров: 30  [ 0 байт/сек ]     Личеров: 6  [ 0 байт/сек ]  
  

Сообщение Бубочка » 31 окт 2016, 20:46


Название: Охотники за привидениями
Оригинальное название: Ghostbusters
Год выхода: 2016
Жанр: Фантастика, фэнтези, боевик, комедия
Режиссер: Пол Фиг
В ролях: Мелисса МакКарти, Кристен Уиг, Кейт МакКиннон, Лесли Джонс, Крис Хемсворт, Сесили Стронг, Энди Гарсиа, Нил Кэйси, Чарльз Дэнс, Майкл Кеннет Уильямс

О фильме:
Решили как-то энергичная толстушка, затюканная училка, блондинистая стервочка и чернокожая бой-баба спасти несчастный город Нью-Йорк от привидений, что полезли внезапно изо всех щелей. А тут еще Крис Хемсворт пришел – напомаженный такой, манерный, жеманный. Пришел он, значит, и говорит – «Девочки, последний кусок докторской колбасы я сегодня доел, и ежели меня в вашу команду вы не возьмете, то, не откладывая дела в долгий ящик, ноги немедля и протяну». И такого шороху нагнала бравая женская команда на потусторонний мир, что мама не горюй, всем несчастным призракам мало не показалось - аж жаль их стало, так над ними наши фемины измывались. Всех, всех привидений они разогнали по адским углам, где им самое место, и зажили все дружно и счастливо, а дамы наши в пылу схватки с нечистью даже умудрились вроде бы как свое хрупкое женское счастье найти. Да и у Криса Хемсворта получше житуха стала – с докторской колбасы перешел он на финский сервелат. Вот как бывает, а вы говорите…




Страна: США
Студия: Columbia Pictures, Feigco Entertainment, The Montecito Picture Company
Продолжительность: 01:56:34
Перевод: Дублированный | Лицензия

Файл
Кодек: MPEG-4
Качество: BDRip 1080p
Видео: 1920x800, 8114 Кbit/s, 23.976 fps
Звук:
Аудио #01: 48 kHz, AC3, 5.1, 384 Kbps | Дублированный | Лицензия |
Аудио #02: 48 kHz, DTS, 5.1, 1510 kbps | Оригинал |
Субтитры: Русские (forced, full), английские
General
Unique ID : 190040131359450438824763309440583214552 (0x8EF865E0D7300ED5BA074A1F254A25D8)
Complete name : Ghostbusters.2016.D.BDRip.1080p.mkv
Format : Matroska
Format version : Version 4 / Version 2
File size : 8.15 GiB
Duration : 1 h 56 min
Overall bit rate : 10.0 Mb/s
Movie name : ***селезень***
Encoded date : UTC 2016-10-31 13:59:16
Writing application : mkvmerge v8.3.0 ('Over the Horizon') 64bit
Writing library : libebml v1.3.1 + libmatroska v1.4.2

Video
ID : 1
Format : AVC
Format/Info : Advanced Video Codec
Format profile : High@L4.1
Format settings, CABAC : Yes
Format settings, ReFrames : 5 frames
Codec ID : V_MPEG4/ISO/AVC
Duration : 1 h 56 min
Bit rate : 8 114 kb/s
Width : 1 920 pixels
Height : 800 pixels
Display aspect ratio : 2.40:1
Frame rate mode : Constant
Frame rate : 23.976 (24000/1001) FPS
Color space : YUV
Chroma subsampling : 4:2:0
Bit depth : 8 bits
Scan type : Progressive
Bits/(Pixel*Frame) : 0.220
Stream size : 6.61 GiB (81%)
Title : ***селезень***
Writing library : x264 core 146 r2538 121396c
Encoding settings : cabac=1 / ref=5 / deblock=1:-3:-3 / analyse=0x3:0x133 / me=umh / subme=10 / psy=1 / psy_rd=1.05:0.05 / mixed_ref=1 / me_range=32 / chroma_me=1 / trellis=2 / 8x8dct=1 / cqm=0 / deadzone=21,11 / fast_pskip=0 / chroma_qp_offset=-3 / threads=6 / lookahead_threads=1 / sliced_threads=0 / nr=0 / decimate=0 / interlaced=0 / bluray_compat=0 / constrained_intra=0 / bframes=8 / b_pyramid=2 / b_adapt=2 / b_bias=0 / direct=3 / weightb=1 / open_gop=0 / weightp=2 / keyint=240 / keyint_min=23 / scenecut=40 / intra_refresh=0 / rc_lookahead=60 / rc=2pass / mbtree=1 / bitrate=8114 / ratetol=1.0 / qcomp=0.60 / qpmin=0 / qpmax=69 / qpstep=4 / cplxblur=20.0 / qblur=0.5 / vbv_maxrate=50000 / vbv_bufsize=62500 / nal_hrd=none / filler=0 / ip_ratio=1.40 / aq=1:0.80
Language : English
Default : Yes
Forced : No

Audio #1
ID : 2
Format : AC-3
Format/Info : Audio Coding 3
Mode extension : CM (complete main)
Format settings, Endianness : Big
Codec ID : A_AC3
Duration : 1 h 56 min
Bit rate mode : Constant
Bit rate : 384 kb/s
Channel(s) : 6 channels
Channel positions : Front: L C R, Side: L R, LFE
Sampling rate : 48.0 kHz
Frame rate : 31.250 FPS (1536 spf)
Compression mode : Lossy
Stream size : 320 MiB (4%)
Title : Dub [License]
Language : Russian
Default : Yes
Forced : No

Audio #2
ID : 3
Format : DTS
Format/Info : Digital Theater Systems
Mode : 16
Format settings, Endianness : Big
Codec ID : A_DTS
Duration : 1 h 56 min
Bit rate mode : Constant
Bit rate : 1 509 kb/s
Channel(s) : 6 channels
Channel positions : Front: L C R, Side: L R, LFE
Sampling rate : 48.0 kHz
Frame rate : 93.750 FPS (512 spf)
Bit depth : 24 bits
Compression mode : Lossy
Stream size : 1.23 GiB (15%)
Title : Original
Language : English
Default : No
Forced : No

Text #1
ID : 4
Format : UTF-8
Codec ID : S_TEXT/UTF8
Codec ID/Info : UTF-8 Plain Text
Duration : 1 h 43 min
Bit rate : 1 b/s
Count of elements : 28
Stream size : 1.43 KiB (0%)
Title : Forced
Language : Russian
Default : Yes
Forced : No

Text #2
ID : 5
Format : UTF-8
Codec ID : S_TEXT/UTF8
Codec ID/Info : UTF-8 Plain Text
Duration : 1 h 55 min
Bit rate : 119 b/s
Count of elements : 2042
Stream size : 101 KiB (0%)
Title : Full
Language : Russian
Default : No
Forced : No

Text #3
ID : 6
Format : UTF-8
Codec ID : S_TEXT/UTF8
Codec ID/Info : UTF-8 Plain Text
Duration : 1 h 55 min
Bit rate : 82 b/s
Count of elements : 2122
Stream size : 69.4 KiB (0%)
Title : Full
Language : English
Default : No
Forced : No

Menu
00:00:00.000 : en:
00:08:24.295 : en:
00:15:21.754 : en:
00:19:59.240 : en:
00:25:27.901 : en:
00:33:55.950 : en:
00:39:04.133 : en:
00:45:24.305 : en:
00:51:51.108 : en:
00:56:33.348 : en:
01:01:52.417 : en:
01:07:04.103 : en:
01:15:43.288 : en:
01:23:30.338 : en:
01:32:41.639 : en:
01:42:49.580 : en:
   
Торрент: Зарегистрирован [31 окт 2016, 20:46] Фантастика / Фэнтези Скачать торрент
Скачать торрент
[ Размер 41.5 КБ / Просмотров 7 ]
Статус:
Проверен
 
.torrent скачан: 79 раз
Размер: 8.15 ГБ (8 753 196 936 байт)
   
Аватара пользователя
Бубочка
Администратор
Администратор
 
Раздал: 7.29 ТБ
Скачал: 419.06 ГБ
Ратио: 150.817
Сообщения: 4930
Зарегистрирован: 13 дек 2013, 01:15


  • Похожие торренты
    Ответы
    Просмотры
    Последнее сообщение

Вернуться в Фантастика / Фэнтези

Кто сейчас на конференции

Сейчас этот форум просматривают: нет зарегистрированных пользователей и гости: 1

cron
Ресурс не предоставляет электронные версии произведений, а занимается лишь коллекционированием и каталогизацией ссылок, присылаемых и публикуемых на форуме нашими читателями. Если вы являетесь правообладателем какого-либо представленного материала и не желаете чтобы ссылка на него находилась в нашем каталоге, свяжитесь с нами и мы незамедлительно удалим её. Файлы для обмена на трекере предоставлены пользователями сайта, и администрация не несёт ответственности за их содержание. Просьба не заливать файлы, защищенные авторскими правами, а также файлы нелегального содержания!
cron
ppkBB3cker v.2 © 2008-2014 @ PPK