Дом странных детей Мисс Перегрин / Miss Peregrine's Home for Peculiar Children (2016) BDRip 1080p | Лицензия - скачать торрент

 Статистика раздачи 
Размер: 12.37 ГБ   |  Зарегистрирован: 06 дек 2016, 21:21   |   .torrent скачан: 15001 раз
Сидеров: 33  [ 0 байт/сек ]     Личеров: 6  [ 0 байт/сек ]  
  

Сообщение Бубочка » 06 дек 2016, 21:21


Название: Дом странных детей Мисс Перегрин
Оригинальное название: Miss Peregrine's Home for Peculiar Children
Год выпуска: 2016
Жанр: Фэнтези, приключения, экранизация
Режиссер: Тим Бёртон
В ролях: Ева Грин, Эйса Баттерфилд, Сэмюэл Л. Джексон, Джуди Денч, Руперт Эверетт, Эллисон Джэнни, Крис О`Дауд, Теренс Стэмп, Элла Пёрнелл, Финлэй МакМиллан, Лорен МакКрости, Хейден Килер-Стоун, Джорджия Пембертон, Майло Паркер, Раффиелла Чепмен, Пикси Дейвис

О фильме:
У одного мальчика был дедушка, который любил рассказывать внуку на ночь занимательные истории из своей жизни в приюте для особо одаренных детей. Там был и мальчик без головы, невидимый для окружающих, и девочка, от прикосновений которой натурально кипела кровь, и еще одна девочка, при виде которой кровь, наоборот, стыла в жилах. Когда дедушка внезапно умирает, внук получает странное письмо, написанное неровным почерком. Оно приводит юношу на загадочный остров и там он встречает ту самую компанию неформалов. Их ожидают захватывающие приключения в окраинных районах портового города и сельской местности.



Страна: Великобритания, Бельгия, США
Студия: 20th Century Fox Film Corporation, Chernin Entertainment
Продолжительность: 02:06:51
Перевод: Дублированный [Лицензия]

Файл
Кодек: MPEG-4 AVC
Качество: BDRip (1080p)
Видео: 12000 Кбит/с, 1920x1038
Звук: Русский (AC3, 6 ch, 448 Кбит/с), английский (DTS, 6 ch, 1509 Кбит/с)
Субтитры: Английские
General
Unique ID : 240083392117273496689816980866779834369 (0xB49E61208BEF06E1AE57FFD8A3D7E801)
Complete name : Дом странных детей Мисс Перегрин.2016.BDRip.1080p.mkv
Format : Matroska
Format version : Version 2
File size : 12.4 GiB
Duration : 2 h 6 min
Overall bit rate : 14.0 Mb/s
Movie name : Дом странных детей Мисс Перегрин.2016.BDRip.1080p
Encoded date : UTC 2016-12-05 15:51:23
Writing application : mkvmerge v7.7.0 ('Six Voices') 64bit built on Feb 28 2015 23:39:33
Writing library : libebml v1.3.1 + libmatroska v1.4.2

Video
ID : 1
Format : AVC
Format/Info : Advanced Video Codec
Format profile : High@L4.1
Format settings, CABAC : Yes
Format settings, ReFrames : 4 frames
Codec ID : V_MPEG4/ISO/AVC
Duration : 2 h 6 min
Bit rate : 12.0 Mb/s
Width : 1 920 pixels
Height : 1 038 pixels
Display aspect ratio : 1.85:1
Frame rate mode : Constant
Frame rate : 23.976 (24000/1001) FPS
Color space : YUV
Chroma subsampling : 4:2:0
Bit depth : 8 bits
Scan type : Progressive
Bits/(Pixel*Frame) : 0.251
Stream size : 10.4 GiB (84%)
Title : Дом странных детей Мисс Перегрин.2016.BDRip.1080p.NNMClub
Writing library : x264 core 148 r2597 e86f3a1
Encoding settings : cabac=1 / ref=4 / deblock=1:0:0 / analyse=0x3:0x113 / me=umh / subme=10 / psy=1 / psy_rd=1.05:0.10 / mixed_ref=1 / me_range=48 / chroma_me=1 / trellis=2 / 8x8dct=1 / cqm=0 / deadzone=21,11 / fast_pskip=0 / chroma_qp_offset=-2 / threads=12 / lookahead_threads=1 / sliced_threads=0 / nr=0 / decimate=1 / interlaced=0 / bluray_compat=0 / constrained_intra=0 / bframes=6 / b_pyramid=2 / b_adapt=2 / b_bias=0 / direct=3 / weightb=1 / open_gop=0 / weightp=2 / keyint=250 / keyint_min=23 / scenecut=40 / intra_refresh=0 / rc=2pass / mbtree=0 / bitrate=12000 / ratetol=2.0 / qcomp=0.70 / qpmin=0 / qpmax=69 / qpstep=4 / cplxblur=20.0 / qblur=0.5 / ip_ratio=1.40 / pb_ratio=1.30 / aq=2:1.00
Language : English
Default : Yes
Forced : No

Audio #1
ID : 2
Format : AC-3
Format/Info : Audio Coding 3
Mode extension : CM (complete main)
Format settings, Endianness : Big
Codec ID : A_AC3
Duration : 2 h 6 min
Bit rate mode : Constant
Bit rate : 448 kb/s
Channel(s) : 6 channels
Channel positions : Front: L C R, Side: L R, LFE
Sampling rate : 48.0 kHz
Frame rate : 31.250 FPS (1536 spf)
Bit depth : 16 bits
Compression mode : Lossy
Stream size : 407 MiB (3%)
Title : Дублированный (Лицензия BD CEE)
Language : Russian
Default : Yes
Forced : No

Audio #2
ID : 3
Format : DTS
Format/Info : Digital Theater Systems
Format profile : ES Matrix / Core
Mode : 16
Format settings, Endianness : Big
Codec ID : A_DTS
Duration : 2 h 6 min
Bit rate mode : Constant
Bit rate : 1 509 kb/s
Channel(s) : 7 channels / 6 channels
Channel positions : Front: L C R, Side: L R, Back: C, LFE / Front: L C R, Side: L R, LFE
Sampling rate : 48.0 kHz
Frame rate : 93.750 FPS (512 spf)
Bit depth : 24 bits
Compression mode : Lossy
Stream size : 1.34 GiB (11%)
Title : Оригинал
Language : English
Default : No
Forced : No

Text
ID : 4
Format : UTF-8
Codec ID : S_TEXT/UTF8
Codec ID/Info : UTF-8 Plain Text
Language : English
Default : No
Forced : No

Menu
00:00:00.000 : en:00:00:00.000
00:03:40.804 : en:00:03:40.804
00:08:38.017 : en:00:08:38.017
00:13:06.828 : en:00:13:06.828
00:15:26.551 : en:00:15:26.551
00:19:47.478 : en:00:19:47.478
00:23:23.652 : en:00:23:23.652
00:27:47.040 : en:00:27:47.040
00:31:06.448 : en:00:31:06.448
00:34:36.783 : en:00:34:36.783
00:39:34.998 : en:00:39:34.998
00:42:42.810 : en:00:42:42.810
00:46:05.638 : en:00:46:05.638
00:48:36.497 : en:00:48:36.497
00:54:16.462 : en:00:54:16.462
00:57:21.480 : en:00:57:21.480
01:02:03.261 : en:01:02:03.261
01:08:20.847 : en:01:08:20.847
01:14:29.006 : en:01:14:29.006
01:18:54.063 : en:01:18:54.063
01:24:15.300 : en:01:24:15.300
01:28:42.442 : en:01:28:42.442
01:33:11.753 : en:01:33:11.753
01:36:29.033 : en:01:36:29.033
01:40:43.788 : en:01:40:43.788
01:46:09.238 : en:01:46:09.238
01:53:35.308 : en:01:53:35.308
02:00:34.394 : en:02:00:34.394
   
Торрент: Зарегистрирован [06 дек 2016, 21:21] Фантастика / Фэнтези Скачать торрент
Скачать торрент
[ Размер 62.57 КБ / Просмотров 2 ]
Статус:
Проверен
 
.torrent скачан: 15001 раз
Размер: 12.37 ГБ (13 286 218 939 байт)
   
Аватара пользователя
Бубочка
Администратор
Администратор
 
Раздал: 7.29 ТБ
Скачал: 419.06 ГБ
Ратио: 150.817
Сообщения: 4932
Зарегистрирован: 13 дек 2013, 01:15


  • Похожие торренты
    Ответы
    Просмотры
    Последнее сообщение

Вернуться в Фантастика / Фэнтези

Кто сейчас на конференции

Сейчас этот форум просматривают: нет зарегистрированных пользователей и гости: 1

cron
Ресурс не предоставляет электронные версии произведений, а занимается лишь коллекционированием и каталогизацией ссылок, присылаемых и публикуемых на форуме нашими читателями. Если вы являетесь правообладателем какого-либо представленного материала и не желаете чтобы ссылка на него находилась в нашем каталоге, свяжитесь с нами и мы незамедлительно удалим её. Файлы для обмена на трекере предоставлены пользователями сайта, и администрация не несёт ответственности за их содержание. Просьба не заливать файлы, защищенные авторскими правами, а также файлы нелегального содержания!
cron
ppkBB3cker v.2 © 2008-2014 @ PPK