Первый мститель: Противостояние / Captain America: Civil War (2016) BDRip 1080p | 3D-Video | halfOU | IMAX Edition | iTunes - скачать торрент

 Статистика раздачи 
Размер: 10.54 ГБ   |  Зарегистрирован: 04 сен 2016, 16:30   |   .torrent скачан: 23540 раз
Сидеров: 265  [ 0 байт/сек ]     Личеров: 29  [ 0 байт/сек ]  
  

Сообщение Бубочка » 04 сен 2016, 16:30




Год выпуска: 2016
Страна: США, Германия (Marvel Studios, Walt Disney Studios, Studio Babelsberg)
Жанр: Фантастика, Боевик, Приключения
Продолжительность: 02:27:41
Перевод: Профессиональный дублированный - iTunes

Режиссеры: Энтони Руссо, Джо Руссо / Anthony Russo, Joe Russo
Роли исполняли (дублировали): Steve Rogers / Captain America - Крис Эванс (Даниил Эльдаров)
Tony Stark / Iron Man - Роберт Дауни мл. (Владимир Зайцев)
Natasha Romanoff / Black Widow - Скарлетт Йоханссон (Татьяна Шитова)
Bucky Barnes / Winter Soldier - Себастьян Стэн (Илья Бледный)
Sam Wilson / Falcon - Энтони Маки (Алексей Черных)
Lieutenant James Rhodes / War Machine - Дон Чидл (Михаил Тихонов)
Clint Barton / Hawkeye - Джереми Реннер (Илья Исаев)
T'Challa / Black Panther - Чедвик Боузман (Спартак Сумченко)
Vision - Пол Беттани (Григорий Перель)
Wanda Maximoff / Scarlet Witch - Элизабет Олсен (Анна Киселева)
Scott Lang / Ant-Man - Пол Радд (Антон Эльдаров)
Sharon Carter - Эмили ВанКэмп (Софья Ануфриева)
Peter Parker / Spider-Man - Том Холланд (Владимир Канухин)
Zemo - Даниэль Брюль (Иван Лапин)
Secretary of State Thaddeus Ross - Уильям Хёрт (Владимир Левашёв)
Everett K. Ross - Мартин Фриман (Василий Зотов)
May Parker - Мариса Томей (Елена Шульман)


Описание: Мстители под руководством Капитана Америки оказываются участниками разрушительного инцидента, имеющего международный масштаб. Эти события заставляют правительство задуматься над тем, чтобы начать регулировать действия всех людей с особыми способностями, введя «Акт о регистрации супергероев», вынуждая их подчиняться ООН.
Видя в этом договоре нарушение гражданских прав и плевок на всё, во что он верит, Стив Роджерс открыто восстаёт против нового режима, ведя за собой группу героев, поддерживающих его мнение. В свою очередь, Тони Старк видит смысл в новом договоре и становится во главе героев, поддерживающих его. Всё это приводит к неизбежному расколу Мстителей и войне между сторонами. Сражаясь друг с другом, Старк и Роджерс не знают о том, что таинственный Барон Земо уже строит свои собственные планы, воспользовавшись расколом величайших героев Земли.




Качество: BDRip (1080p)
Контейнер: MKV
Формат 3D: Half OverUnder / Вертикальная анаморфная стереопара
Порядок ракурсов: левый ракурс первый


Видео: AVC / 1920х1080p / 23,976 fps / 7712 Kbps

Аудио:
#1 - Русский / AC3 / 48 KHz / 5.1 ch / 384 Kbps (Дубляж - iTunes)
#2 - Русский / AC3 / 48 KHz / 5.1 ch / 640 Kbps (MVO - FocusStudio)
#3 - Украинский / AC3 / 48 KHz / 5.1 ch / 640 Kbps (Дубляж - Disney / Buena Vista)
#4 - Английский / AC3 / 48 KHz / 5.1 ch / 640 Kbps (Original - BD 3D)

Субтитры (SRT):
Вшитые (softsub):
#1 - Русские Форсированные [редакция Ash61] (включены по умолчанию)
#2 - Русские Полные (iTunes)
#3 - English Forced
#4 - English Full
#5 - English SDH

Внешние (UTF-8):
#1 - Русские Форсированные [редакция Ash61] (включены по умолчанию)

Сэмпл

General
Unique ID : 222127208319601217271228982448427049060 (0xA71C24EA1145B8549BD38528D3C72064)
Complete name : E:CaptainAmerica3(2016)3D-halfOU-iTunes.mkv
Format : Matroska
Format version : Version 2
File size : 10.5 GiB
Duration : 2h 27mn
Overall bit rate : 10.2 Mbps
Movie name : Первый мститель: Противостояние / Captain America: Civil War (2016) в 3Д
Encoded date : UTC 2016-09-03 12:51:37
Writing application : mkvmerge v5.8.0 ('No Sleep / Pillow') built on Sep 2 2012 15:37:04
Writing library : libebml v1.2.3 + libmatroska v1.3.0

Video
ID : 1
Format : AVC
Format/Info : Advanced Video Codec
Format profile : High@L4.1
Format settings, CABAC : Yes
Format settings, ReFrames : 4 frames
Codec ID : V_MPEG4/ISO/AVC
Duration : 2h 27mn
Bit rate : 7 712 Kbps
Width : 1 920 pixels
Height : 1 080 pixels
Display aspect ratio : 16:9
Frame rate mode : Constant
Frame rate : 23.976 fps
Color space : YUV
Chroma subsampling : 4:2:0
Bit depth : 8 bits
Scan type : Progressive
Bits/(Pixel*Frame) : 0.155
Stream size : 7.96 GiB (75%)
Title : BDRip by Ash61
Writing library : x264 core 146 r2538 121396c
Encoding settings : cabac=1 / ref=4 / deblock=1:-3:-3 / analyse=0x3:0x113 / me=umh / subme=10 / psy=1 / psy_rd=1.00:0.00 / mixed_ref=1 / me_range=32 / chroma_me=1 / trellis=2 / 8x8dct=1 / cqm=0 / deadzone=21,11 / fast_pskip=1 / chroma_qp_offset=-2 / threads=12 / lookahead_threads=3 / sliced_threads=0 / nr=0 / decimate=1 / interlaced=0 / bluray_compat=0 / constrained_intra=0 / bframes=14 / b_pyramid=2 / b_adapt=2 / b_bias=0 / direct=3 / weightb=1 / open_gop=0 / weightp=2 / keyint=250 / keyint_min=23 / scenecut=40 / intra_refresh=0 / rc_lookahead=60 / rc=crf / mbtree=1 / crf=15.0 / qcomp=0.70 / qpmin=0 / qpmax=69 / qpstep=4 / vbv_maxrate=40000 / vbv_bufsize=30000 / crf_max=0.0 / nal_hrd=none / filler=0 / frame-packing=4 / ip_ratio=1.40 / aq=1:0.70
Language : English
Default : Yes
Forced : No

Audio #1
ID : 2
Format : AC-3
Format/Info : Audio Coding 3
Mode extension : CM (complete main)
Format settings, Endianness : Big
Codec ID : A_AC3
Duration : 2h 27mn
Bit rate mode : Constant
Bit rate : 384 Kbps
Channel(s) : 6 channels
Channel positions : Front: L C R, Side: L R, LFE
Sampling rate : 48.0 KHz
Bit depth : 16 bits
Compression mode : Lossy
Stream size : 406 MiB (4%)
Title : Дубляж - iTunes
Language : Russian
Default : Yes
Forced : No

Audio #2
ID : 3
Format : AC-3
Format/Info : Audio Coding 3
Mode extension : CM (complete main)
Format settings, Endianness : Big
Codec ID : A_AC3
Duration : 2h 27mn
Bit rate mode : Constant
Bit rate : 640 Kbps
Channel(s) : 6 channels
Channel positions : Front: L C R, Side: L R, LFE
Sampling rate : 48.0 KHz
Bit depth : 16 bits
Compression mode : Lossy
Stream size : 676 MiB (6%)
Title : Многоголосый закадровый - FocusStudio
Language : Russian
Default : No
Forced : No

Audio #3
ID : 4
Format : AC-3
Format/Info : Audio Coding 3
Mode extension : CM (complete main)
Format settings, Endianness : Big
Codec ID : A_AC3
Duration : 2h 27mn
Bit rate mode : Constant
Bit rate : 640 Kbps
Channel(s) : 6 channels
Channel positions : Front: L C R, Side: L R, LFE
Sampling rate : 48.0 KHz
Bit depth : 16 bits
Compression mode : Lossy
Stream size : 676 MiB (6%)
Title : Дубляж - Disney / Buena Vista
Language : Ukrainian
Default : No
Forced : No

Audio #4
ID : 5
Format : AC-3
Format/Info : Audio Coding 3
Mode extension : CM (complete main)
Format settings, Endianness : Big
Codec ID : A_AC3
Duration : 2h 27mn
Bit rate mode : Constant
Bit rate : 640 Kbps
Channel(s) : 6 channels
Channel positions : Front: L C R, Side: L R, LFE
Sampling rate : 48.0 KHz
Bit depth : 16 bits
Compression mode : Lossy
Stream size : 676 MiB (6%)
Title : Original
Language : English
Default : No
Forced : No

Text #1
ID : 6
Format : UTF-8
Codec ID : S_TEXT/UTF8
Codec ID/Info : UTF-8 Plain Text
Title : Форсированные (ver.Ash61)
Language : Russian
Default : Yes
Forced : No

Text #2
ID : 7
Format : UTF-8
Codec ID : S_TEXT/UTF8
Codec ID/Info : UTF-8 Plain Text
Title : Полные - iTunes
Language : Russian
Default : No
Forced : No

Text #3
ID : 8
Format : UTF-8
Codec ID : S_TEXT/UTF8
Codec ID/Info : UTF-8 Plain Text
Title : Forced
Language : English
Default : No
Forced : No

Text #4
ID : 9
Format : UTF-8
Codec ID : S_TEXT/UTF8
Codec ID/Info : UTF-8 Plain Text
Title : Full
Language : English
Default : No
Forced : No

Text #5
ID : 10
Format : UTF-8
Codec ID : S_TEXT/UTF8
Codec ID/Info : UTF-8 Plain Text
Title : SDH
Language : English
Default : No
Forced : No

Menu
00:00:00.000 : : 1
00:09:01.957 : : 2
00:13:04.991 : : 3
00:21:03.345 : : 4
00:27:53.380 : : 5
00:31:57.289 : : 6
00:35:08.396 : : 7
00:42:58.449 : : 8
00:52:04.621 : : 9
01:05:39.101 : : 10
01:16:41.637 : : 11
01:22:28.777 : : 12
01:29:29.488 : : 13
01:34:09.769 : : 14
01:45:38.582 : : 15
01:55:54.322 : : 16
02:02:35.055 : : 17
02:12:14.176 : : 18
02:18:29.384 : : 19
   
Торрент: Зарегистрирован [04 сен 2016, 16:30] 3D video Скачать торрент
Скачать торрент
[ Размер 53.53 КБ / Просмотров 103 ]
Статус:
Проверен
 
.torrent скачан: 23540 раз
Размер: 10.54 ГБ (11 319 405 013 байт)
   
Аватара пользователя
Бубочка
Администратор
Администратор
 
Раздал: 7.29 ТБ
Скачал: 419.06 ГБ
Ратио: 150.817
Сообщения: 4933
Зарегистрирован: 13 дек 2013, 01:15


  • Похожие торренты
    Ответы
    Просмотры
    Последнее сообщение

Вернуться в 3D video

Кто сейчас на конференции

Сейчас этот форум просматривают: нет зарегистрированных пользователей и гости: 1

cron
Ресурс не предоставляет электронные версии произведений, а занимается лишь коллекционированием и каталогизацией ссылок, присылаемых и публикуемых на форуме нашими читателями. Если вы являетесь правообладателем какого-либо представленного материала и не желаете чтобы ссылка на него находилась в нашем каталоге, свяжитесь с нами и мы незамедлительно удалим её. Файлы для обмена на трекере предоставлены пользователями сайта, и администрация не несёт ответственности за их содержание. Просьба не заливать файлы, защищенные авторскими правами, а также файлы нелегального содержания!
cron
ppkBB3cker v.2 © 2008-2014 @ PPK